  0
SECTION
  2
HEADER
  9
$ACADVER
  1
AC1018
  9
$ACADMAINTVER
 70
   104
  9
$DWGCODEPAGE
  3
ANSI_1250
  9
$LASTSAVEDBY
  1
Dell
  9
$INSBASE
 10
0.0
 20
0.0
 30
0.0
  9
$EXTMIN
 10
8415726.000000001
 20
5745948.879999999
 30
-0.00000001
  9
$EXTMAX
 10
8415995.77
 20
5746314.61
 30
0.5
  9
$LIMMIN
 10
0.0
 20
0.0
  9
$LIMMAX
 10
420.0
 20
297.0
  9
$ORTHOMODE
 70
     0
  9
$REGENMODE
 70
     1
  9
$FILLMODE
 70
     1
  9
$QTEXTMODE
 70
     0
  9
$MIRRTEXT
 70
     1
  9
$LTSCALE
 40
1.0
  9
$ATTMODE
 70
     1
  9
$TEXTSIZE
 40
2.5
  9
$TRACEWID
 40
1.0
  9
$TEXTSTYLE
  7
Standard
  9
$CLAYER
  8
0
  9
$CELTYPE
  6
ByLayer
  9
$CECOLOR
 62
   256
  9
$CELTSCALE
 40
1.0
  9
$DISPSILH
 70
     0
  9
$DIMSCALE
 40
1.0
  9
$DIMASZ
 40
2.5
  9
$DIMEXO
 40
0.625
  9
$DIMDLI
 40
3.75
  9
$DIMRND
 40
0.0
  9
$DIMDLE
 40
0.0
  9
$DIMEXE
 40
1.25
  9
$DIMTP
 40
0.0
  9
$DIMTM
 40
0.0
  9
$DIMTXT
 40
2.5
  9
$DIMCEN
 40
2.5
  9
$DIMTSZ
 40
0.0
  9
$DIMTOL
 70
     0
  9
$DIMLIM
 70
     0
  9
$DIMTIH
 70
     0
  9
$DIMTOH
 70
     0
  9
$DIMSE1
 70
     0
  9
$DIMSE2
 70
     0
  9
$DIMTAD
 70
     1
  9
$DIMZIN
 70
     8
  9
$DIMBLK
  1

  9
$DIMASO
 70
     1
  9
$DIMSHO
 70
     1
  9
$DIMPOST
  1

  9
$DIMAPOST
  1

  9
$DIMALT
 70
     0
  9
$DIMALTD
 70
     3
  9
$DIMALTF
 40
0.03937007874016
  9
$DIMLFAC
 40
1.0
  9
$DIMTOFL
 70
     1
  9
$DIMTVP
 40
0.0
  9
$DIMTIX
 70
     0
  9
$DIMSOXD
 70
     0
  9
$DIMSAH
 70
     0
  9
$DIMBLK1
  1

  9
$DIMBLK2
  1

  9
$DIMSTYLE
  2
ISO-25
  9
$DIMCLRD
 70
     0
  9
$DIMCLRE
 70
     0
  9
$DIMCLRT
 70
     0
  9
$DIMTFAC
 40
1.0
  9
$DIMGAP
 40
0.625
  9
$DIMJUST
 70
     0
  9
$DIMSD1
 70
     0
  9
$DIMSD2
 70
     0
  9
$DIMTOLJ
 70
     0
  9
$DIMTZIN
 70
     8
  9
$DIMALTZ
 70
     0
  9
$DIMALTTZ
 70
     0
  9
$DIMUPT
 70
     0
  9
$DIMDEC
 70
     2
  9
$DIMTDEC
 70
     2
  9
$DIMALTU
 70
     2
  9
$DIMALTTD
 70
     3
  9
$DIMTXSTY
  7
Standard
  9
$DIMAUNIT
 70
     0
  9
$DIMADEC
 70
     0
  9
$DIMALTRND
 40
0.0
  9
$DIMAZIN
 70
     0
  9
$DIMDSEP
 70
    44
  9
$DIMATFIT
 70
     3
  9
$DIMFRAC
 70
     0
  9
$DIMLDRBLK
  1

  9
$DIMLUNIT
 70
     2
  9
$DIMLWD
 70
    -2
  9
$DIMLWE
 70
    -2
  9
$DIMTMOVE
 70
     0
  9
$LUNITS
 70
     2
  9
$LUPREC
 70
     4
  9
$SKETCHINC
 40
1.0
  9
$FILLETRAD
 40
0.0
  9
$AUNITS
 70
     0
  9
$AUPREC
 70
     0
  9
$MENU
  1
.
  9
$ELEVATION
 40
0.0
  9
$PELEVATION
 40
0.0
  9
$THICKNESS
 40
0.0
  9
$LIMCHECK
 70
     0
  9
$CHAMFERA
 40
0.0
  9
$CHAMFERB
 40
0.0
  9
$CHAMFERC
 40
0.0
  9
$CHAMFERD
 40
0.0
  9
$SKPOLY
 70
     0
  9
$TDCREATE
 40
2459810.892452141
  9
$TDUCREATE
 40
2459810.809118808
  9
$TDUPDATE
 40
2459810.892840255
  9
$TDUUPDATE
 40
2459810.809506921
  9
$TDINDWG
 40
0.000389201
  9
$TDUSRTIMER
 40
0.000389016
  9
$USRTIMER
 70
     1
  9
$ANGBASE
 50
0.0
  9
$ANGDIR
 70
     0
  9
$PDMODE
 70
     0
  9
$PDSIZE
 40
0.0
  9
$PLINEWID
 40
0.0
  9
$SPLFRAME
 70
     0
  9
$SPLINETYPE
 70
     6
  9
$SPLINESEGS
 70
     8
  9
$HANDSEED
  5
540
  9
$SURFTAB1
 70
     6
  9
$SURFTAB2
 70
     6
  9
$SURFTYPE
 70
     6
  9
$SURFU
 70
     6
  9
$SURFV
 70
     6
  9
$UCSBASE
  2

  9
$UCSNAME
  2

  9
$UCSORG
 10
0.0
 20
0.0
 30
0.0
  9
$UCSXDIR
 10
1.0
 20
0.0
 30
0.0
  9
$UCSYDIR
 10
0.0
 20
1.0
 30
0.0
  9
$UCSORTHOREF
  2

  9
$UCSORTHOVIEW
 70
     0
  9
$UCSORGTOP
 10
0.0
 20
0.0
 30
0.0
  9
$UCSORGBOTTOM
 10
0.0
 20
0.0
 30
0.0
  9
$UCSORGLEFT
 10
0.0
 20
0.0
 30
0.0
  9
$UCSORGRIGHT
 10
0.0
 20
0.0
 30
0.0
  9
$UCSORGFRONT
 10
0.0
 20
0.0
 30
0.0
  9
$UCSORGBACK
 10
0.0
 20
0.0
 30
0.0
  9
$PUCSBASE
  2

  9
$PUCSNAME
  2

  9
$PUCSORG
 10
0.0
 20
0.0
 30
0.0
  9
$PUCSXDIR
 10
1.0
 20
0.0
 30
0.0
  9
$PUCSYDIR
 10
0.0
 20
1.0
 30
0.0
  9
$PUCSORTHOREF
  2

  9
$PUCSORTHOVIEW
 70
     0
  9
$PUCSORGTOP
 10
0.0
 20
0.0
 30
0.0
  9
$PUCSORGBOTTOM
 10
0.0
 20
0.0
 30
0.0
  9
$PUCSORGLEFT
 10
0.0
 20
0.0
 30
0.0
  9
$PUCSORGRIGHT
 10
0.0
 20
0.0
 30
0.0
  9
$PUCSORGFRONT
 10
0.0
 20
0.0
 30
0.0
  9
$PUCSORGBACK
 10
0.0
 20
0.0
 30
0.0
  9
$USERI1
 70
     0
  9
$USERI2
 70
     0
  9
$USERI3
 70
     0
  9
$USERI4
 70
     0
  9
$USERI5
 70
     0
  9
$USERR1
 40
0.0
  9
$USERR2
 40
0.0
  9
$USERR3
 40
0.0
  9
$USERR4
 40
0.0
  9
$USERR5
 40
0.0
  9
$WORLDVIEW
 70
     1
  9
$SHADEDGE
 70
     3
  9
$SHADEDIF
 70
    70
  9
$TILEMODE
 70
     1
  9
$MAXACTVP
 70
    64
  9
$PINSBASE
 10
0.0
 20
0.0
 30
0.0
  9
$PLIMCHECK
 70
     0
  9
$PEXTMIN
 10
25.69999999999999
 20
19.5
 30
0.0
  9
$PEXTMAX
 10
231.3
 20
175.5
 30
0.0
  9
$PLIMMIN
 10
-20.0
 20
-7.5
  9
$PLIMMAX
 10
277.0
 20
202.5
  9
$UNITMODE
 70
     0
  9
$VISRETAIN
 70
     1
  9
$PLINEGEN
 70
     0
  9
$PSLTSCALE
 70
     1
  9
$TREEDEPTH
 70
  3020
  9
$CMLSTYLE
  2
Standard
  9
$CMLJUST
 70
     0
  9
$CMLSCALE
 40
20.0
  9
$PROXYGRAPHICS
 70
     1
  9
$MEASUREMENT
 70
     1
  9
$CELWEIGHT
370
    -1
  9
$ENDCAPS
280
     0
  9
$JOINSTYLE
280
     0
  9
$LWDISPLAY
290
     0
  9
$INSUNITS
 70
     4
  9
$HYPERLINKBASE
  1

  9
$STYLESHEET
  1

  9
$XEDIT
290
     1
  9
$CEPSNTYPE
380
     0
  9
$PSTYLEMODE
290
     1
  9
$FINGERPRINTGUID
  2
{A4CAB1FC-42A2-4D6F-B95F-085582C7A8C3}
  9
$VERSIONGUID
  2
{850804F1-CC22-454C-8DF0-121305C9B19D}
  9
$EXTNAMES
290
     1
  9
$PSVPSCALE
 40
0.0
  9
$OLESTARTUP
290
     0
  9
$SORTENTS
280
   127
  9
$INDEXCTL
280
     0
  9
$HIDETEXT
280
     1
  9
$XCLIPFRAME
290
     1
  9
$HALOGAP
280
     0
  9
$OBSCOLOR
 70
   257
  9
$OBSLTYPE
280
     0
  9
$INTERSECTIONDISPLAY
280
     0
  9
$INTERSECTIONCOLOR
 70
   257
  9
$DIMASSOC
280
     2
  9
$PROJECTNAME
  1

  0
ENDSEC
  0
SECTION
  2
CLASSES
  0
CLASS
  1
ACDBDICTIONARYWDFLT
  2
AcDbDictionaryWithDefault
  3
ObjectDBX Classes
 90
        0
 91
        1
280
     0
281
     0
  0
CLASS
  1
ACDBPLACEHOLDER
  2
AcDbPlaceHolder
  3
ObjectDBX Classes
 90
        0
 91
        0
280
     0
281
     0
  0
CLASS
  1
LAYOUT
  2
AcDbLayout
  3
ObjectDBX Classes
 90
        0
 91
        0
280
     0
281
     0
  0
CLASS
  1
DICTIONARYVAR
  2
AcDbDictionaryVar
  3
ObjectDBX Classes
 90
        0
 91
       10
280
     0
281
     0
  0
CLASS
  1
TABLESTYLE
  2
AcDbTableStyle
  3
ObjectDBX Classes
 90
     4095
 91
        2
280
     0
281
     0
  0
CLASS
  1
WIPEOUTVARIABLES
  2
AcDbWipeoutVariables
  3
"WipeOut|Product Desc:     WipeOut Dbx Application|Company:          Autodesk, Inc.|WEB Address:      www.autodesk.com"
 90
        0
 91
        0
280
     0
281
     0
  0
CLASS
  1
SCALE
  2
AcDbScale
  3
ObjectDBX Classes
 90
     1153
 91
       33
280
     0
281
     0
  0
CLASS
  1
MLEADERSTYLE
  2
AcDbMLeaderStyle
  3
ACDB_MLEADERSTYLE_CLASS
 90
     4095
 91
        3
280
     0
281
     0
  0
CLASS
  1
MATERIAL
  2
AcDbMaterial
  3
ObjectDBX Classes
 90
     1153
 91
        6
280
     0
281
     0
  0
CLASS
  1
VISUALSTYLE
  2
AcDbVisualStyle
  3
ObjectDBX Classes
 90
     4095
 91
       48
280
     0
281
     0
  0
CLASS
  1
ACDBSECTIONVIEWSTYLE
  2
AcDbSectionViewStyle
  3
ObjectDBX Classes
 90
     1025
 91
        1
280
     0
281
     0
  0
CLASS
  1
ACDBDETAILVIEWSTYLE
  2
AcDbDetailViewStyle
  3
ObjectDBX Classes
 90
     1025
 91
        1
280
     0
281
     0
  0
CLASS
  1
SORTENTSTABLE
  2
AcDbSortentsTable
  3
ObjectDBX Classes
 90
        0
 91
        1
280
     0
281
     0
  0
CLASS
  1
DIMASSOC
  2
AcDbDimAssoc
  3
ZcDbDimAssoc ObjectDBX Classes
 90
        0
 91
        2
280
     0
281
     0
  0
CLASS
  1
CELLSTYLEMAP
  2
AcDbCellStyleMap
  3
ObjectDBX Classes
 90
     1152
 91
        1
280
     0
281
     0
  0
ENDSEC
  0
SECTION
  2
TABLES
  0
TABLE
  2
VPORT
  5
8
102
{ACAD_XDICTIONARY
360
501
102
}
330
0
100
AcDbSymbolTable
 70
     1
  0
VPORT
  5
1CC
330
8
100
AcDbSymbolTableRecord
100
AcDbViewportTableRecord
  2
*Active
 70
     0
 10
0.0
 20
0.0
 11
1.0
 21
1.0
 12
8415879.887870199
 22
5746150.450950351
 13
0.0
 23
0.0
 14
10.0
 24
10.0
 15
10.0
 25
10.0
 16
0.0
 26
0.0
 36
1.0
 17
0.0
 27
0.0
 37
0.0
 40
589.8807624168694
 41
1.775838926174496
 42
50.0
 43
0.0
 44
0.0
 50
0.0
 51
0.0
 71
    16
 72
  1000
 73
     1
 74
     3
 75
     0
 76
     0
 77
     0
 78
     0
281
     0
 65
     1
110
0.0
120
0.0
130
0.0
111
1.0
121
0.0
131
0.0
112
0.0
122
1.0
132
0.0
 79
     0
146
0.0
1001
ACAD_NAV_VCDISPLAY
1070
     3
  0
ENDTAB
  0
TABLE
  2
LTYPE
  5
5
330
0
100
AcDbSymbolTable
 70
     1
  0
LTYPE
  5
14
330
5
100
AcDbSymbolTableRecord
100
AcDbLinetypeTableRecord
  2
ByBlock
 70
     0
  3

 72
    65
 73
     0
 40
0.0
  0
LTYPE
  5
15
330
5
100
AcDbSymbolTableRecord
100
AcDbLinetypeTableRecord
  2
ByLayer
 70
     0
  3

 72
    65
 73
     0
 40
0.0
  0
LTYPE
  5
16
330
5
100
AcDbSymbolTableRecord
100
AcDbLinetypeTableRecord
  2
Continuous
 70
     0
  3
Solid line
 72
    65
 73
     0
 40
0.0
  0
ENDTAB
  0
TABLE
  2
LAYER
  5
2
102
{ACAD_XDICTIONARY
360
FA
102
}
330
0
100
AcDbSymbolTable
 70
     6
  0
LAYER
  5
10
102
{ACAD_XDICTIONARY
360
4F8
102
}
330
2
100
AcDbSymbolTableRecord
100
AcDbLayerTableRecord
  2
0
 70
     0
 62
     7
  6
Continuous
370
    -3
390
F
1071
 33554687
  0
LAYER
  5
23C
102
{ACAD_XDICTIONARY
360
4FA
102
}
330
2
100
AcDbSymbolTableRecord
100
AcDbLayerTableRecord
  2
Defpoints
 70
     0
 62
     7
  6
Continuous
290
     0
370
    -3
390
F
1071
 33554687
  0
LAYER
  5
247
102
{ACAD_XDICTIONARY
360
248
102
}
330
2
100
AcDbSymbolTableRecord
100
AcDbLayerTableRecord
  2
trafik woda opis
 70
     0
 62
     7
  6
Continuous
370
    -3
390
24A
1071
 33554687
1001
AcAecLayerStandard
1000

1000

1001
AcCmTransparency
1071
 33554687
  0
LAYER
  5
24B
102
{ACAD_XDICTIONARY
360
4FD
102
}
330
2
100
AcDbSymbolTableRecord
100
AcDbLayerTableRecord
  2
dzialka
 70
     0
 62
     7
  6
Continuous
370
    18
390
F
1071
 33554687
  0
LAYER
  5
23D
102
{ACAD_XDICTIONARY
360
23E
102
}
330
2
100
AcDbSymbolTableRecord
100
AcDbLayerTableRecord
  2
3 - CIENKA LINIA POMOCNICZA
 70
     0
 62
    24
  6
Continuous
370
    13
390
240
1071
 33554687
1001
AcAecLayerStandard
1000

1000

  0
LAYER
  5
243
102
{ACAD_XDICTIONARY
360
244
102
}
330
2
100
AcDbSymbolTableRecord
100
AcDbLayerTableRecord
  2
OPISY NIEBIESKIE
 70
     0
 62
     5
  6
Continuous
370
     9
390
F
1071
 33554687
1001
AcAecLayerStandard
1000

1000

1001
AcCmTransparency
1071
        0
  0
ENDTAB
  0
TABLE
  2
STYLE
  5
3
330
0
100
AcDbSymbolTable
 70
     2
  0
STYLE
  5
11
330
3
100
AcDbSymbolTableRecord
100
AcDbTextStyleTableRecord
  2
Standard
 70
     0
 40
0.0
 41
1.0
 50
0.0
 71
     0
 42
2.5
  3
arial.ttf
  4

1001
ACAD
1000
Arial
1071
       34
  0
STYLE
  5
22F
330
3
100
AcDbSymbolTableRecord
100
AcDbTextStyleTableRecord
  2
Annotative
 70
     0
 40
0.0
 41
1.0
 50
0.0
 71
     0
 42
2.5
  3
arial.ttf
  4

1001
AcadAnnotative
1000
AnnotativeData
1002
{
1070
     1
1070
     1
1002
}
1001
ACAD
1000
Arial
1071
       34
  0
ENDTAB
  0
TABLE
  2
VIEW
  5
6
330
0
100
AcDbSymbolTable
 70
     0
  0
ENDTAB
  0
TABLE
  2
UCS
  5
7
330
0
100
AcDbSymbolTable
 70
     0
  0
ENDTAB
  0
TABLE
  2
APPID
  5
9
330
0
100
AcDbSymbolTable
 70
    11
  0
APPID
  5
12
330
9
100
AcDbSymbolTableRecord
100
AcDbRegAppTableRecord
  2
ACAD
 70
     0
  0
APPID
  5
F4
330
9
100
AcDbSymbolTableRecord
100
AcDbRegAppTableRecord
  2
ACAD_PSEXT
 70
     0
  0
APPID
  5
1A9
330
9
100
AcDbSymbolTableRecord
100
AcDbRegAppTableRecord
  2
ACAD_NAV_VCDISPLAY
 70
     0
  0
APPID
  5
230
330
9
100
AcDbSymbolTableRecord
100
AcDbRegAppTableRecord
  2
AcadAnnoPO
 70
     0
  0
APPID
  5
231
330
9
100
AcDbSymbolTableRecord
100
AcDbRegAppTableRecord
  2
AcadAnnotative
 70
     0
  0
APPID
  5
233
330
9
100
AcDbSymbolTableRecord
100
AcDbRegAppTableRecord
  2
ACAD_DSTYLE_DIMJAG
 70
     0
  0
APPID
  5
234
330
9
100
AcDbSymbolTableRecord
100
AcDbRegAppTableRecord
  2
ACAD_DSTYLE_DIMBREAK
 70
     0
  0
APPID
  5
235
330
9
100
AcDbSymbolTableRecord
100
AcDbRegAppTableRecord
  2
ACAD_DSTYLE_DIMTALN
 70
     0
  0
APPID
  5
242
330
9
100
AcDbSymbolTableRecord
100
AcDbRegAppTableRecord
  2
AcAecLayerStandard
 70
     0
  0
APPID
  5
246
330
9
100
AcDbSymbolTableRecord
100
AcDbRegAppTableRecord
  2
AcCmTransparency
 70
     0
  0
APPID
  5
507
330
9
100
AcDbSymbolTableRecord
100
AcDbRegAppTableRecord
  2
ACAD_MLEADERVER
 70
     0
  0
ENDTAB
  0
TABLE
  2
DIMSTYLE
  5
A
330
0
100
AcDbSymbolTable
 70
     3
100
AcDbDimStyleTable
 71
     2
340
9C
340
236
  0
DIMSTYLE
105
27
330
A
100
AcDbSymbolTableRecord
100
AcDbDimStyleTableRecord
  2
Standard
 70
     0
340
11
  0
DIMSTYLE
105
9C
102
{ACAD_REACTORS
330
295
330
3CE
102
}
330
A
100
AcDbSymbolTableRecord
100
AcDbDimStyleTableRecord
  2
ISO-25
 70
     0
 41
2.5
 42
0.625
 43
3.75
 44
1.25
 73
     0
 74
     0
 77
     1
 78
     8
140
2.5
141
2.5
143
0.03937007874016
147
0.625
171
     3
172
     1
271
     2
272
     2
274
     3
278
    44
283
     0
284
     8
340
11
  0
DIMSTYLE
105
236
330
A
100
AcDbSymbolTableRecord
100
AcDbDimStyleTableRecord
  2
Annotative
 70
     0
 41
2.5
 42
0.625
 43
3.75
 44
1.25
 73
     0
 74
     0
 77
     1
 78
     8
140
2.5
141
2.5
143
0.03937007874016
147
0.625
171
     3
172
     1
271
     2
272
     2
274
     3
278
    44
283
     0
284
     8
340
11
1001
ACAD_DSTYLE_DIMBREAK
1070
   391
1040
3.75
1001
AcadAnnotative
1000
AnnotativeData
1002
{
1070
     1
1070
     1
1002
}
1001
ACAD_DSTYLE_DIMJAG
1070
   388
1040
1.5
1001
ACAD_DSTYLE_DIMTALN
1070
   392
1070
     0
  0
ENDTAB
  0
TABLE
  2
BLOCK_RECORD
  5
1
330
0
100
AcDbSymbolTable
 70
     4
  0
BLOCK_RECORD
  5
1F
330
1
100
AcDbSymbolTableRecord
100
AcDbBlockTableRecord
  2
*Model_Space
340
22
  0
BLOCK_RECORD
  5
1E3
330
1
100
AcDbSymbolTableRecord
100
AcDbBlockTableRecord
  2
*Paper_Space
340
1E4
  0
BLOCK_RECORD
  5
1DF
330
1
100
AcDbSymbolTableRecord
100
AcDbBlockTableRecord
  2
*Paper_Space0
340
1E0
  0
BLOCK_RECORD
  5
29A
330
1
100
AcDbSymbolTableRecord
100
AcDbBlockTableRecord
  2
*D2
340
0
  0
BLOCK_RECORD
  5
4D9
330
1
100
AcDbSymbolTableRecord
100
AcDbBlockTableRecord
  2
*D3
340
0
  0
ENDTAB
  0
ENDSEC
  0
SECTION
  2
BLOCKS
  0
BLOCK
  5
20
330
1F
100
AcDbEntity
  8
0
100
AcDbBlockBegin
  2
*Model_Space
 70
     0
 10
0.0
 20
0.0
 30
0.0
  3
*Model_Space
  1

  0
ENDBLK
  5
21
330
1F
100
AcDbEntity
  8
0
100
AcDbBlockEnd
  0
BLOCK
  5
1E5
330
1E3
100
AcDbEntity
 67
     1
  8
0
100
AcDbBlockBegin
  2
*Paper_Space
 70
     0
 10
0.0
 20
0.0
 30
0.0
  3
*Paper_Space
  1

  0
ENDBLK
  5
1E6
330
1E3
100
AcDbEntity
 67
     1
  8
0
100
AcDbBlockEnd
  0
BLOCK
  5
1E1
330
1DF
100
AcDbEntity
  8
0
100
AcDbBlockBegin
  2
*Paper_Space0
 70
     0
 10
0.0
 20
0.0
 30
0.0
  3
*Paper_Space0
  1

  0
ENDBLK
  5
1E2
330
1DF
100
AcDbEntity
  8
0
100
AcDbBlockEnd
  0
BLOCK
  5
29B
330
29A
100
AcDbEntity
  8
0
100
AcDbBlockBegin
  2
*D2
 70
     1
 10
0.0
 20
0.0
 30
0.0
  3
*D2
  1

  0
LINE
  5
29C
330
29A
100
AcDbEntity
  8
OPISY NIEBIESKIE
 62
     0
370
    -2
100
AcDbLine
 10
8415910.170287471
 20
5746277.396664394
 30
0.0
 11
8415909.53554598
 21
5746277.628217621
 31
0.0
  0
LINE
  5
29D
330
29A
100
AcDbEntity
  8
OPISY NIEBIESKIE
 62
     0
370
    -2
100
AcDbLine
 10
8415914.54996514
 20
5746289.402384341
 30
0.0
 11
8415913.915223649
 21
5746289.633937569
 31
0.0
  0
LINE
  5
29E
330
29A
100
AcDbEntity
  8
OPISY NIEBIESKIE
 62
     0
370
    -2
100
AcDbLine
 10
8415911.566617962
 20
5746279.548438068
 30
0.0
 11
8415914.232756817
 21
5746286.856947703
 31
0.0
  0
SOLID
  5
29F
330
29A
100
AcDbEntity
  8
OPISY NIEBIESKIE
 62
     0
100
AcDbTrace
 10
8415911.17518377
 20
5746279.691232969
 30
0.0
 11
8415911.958052156
 21
5746279.405643167
 31
0.0
 12
8415910.709848555
 22
5746277.199832912
 32
0.0
 13
8415910.709848555
 23
5746277.199832912
 33
0.0
  0
SOLID
  5
2A0
330
29A
100
AcDbEntity
  8
OPISY NIEBIESKIE
 62
     0
100
AcDbTrace
 10
8415914.62419101
 20
5746286.714152801
 30
0.0
 11
8415913.841322625
 21
5746286.999742603
 31
0.0
 12
8415915.089526226
 22
5746289.20555286
 32
0.0
 13
8415915.089526226
 23
5746289.20555286
 33
0.0
  0
MTEXT
  5
2A1
330
29A
100
AcDbEntity
  8
OPISY NIEBIESKIE
 62
     0
100
AcDbMText
 10
8415910.901130137
 20
5746283.931765078
 30
0.0
 40
2.5
 41
0.0
 71
     5
 72
     1
  1
12,78
 11
0.3427077628458949
 21
0.9394420627612765
 31
0.0
 73
     1
 44
1.0
1001
ACAD
1000
MTEXTBEGIN
1070
    73
1070
     1
1070
    44
1040
1.0
1070
    74
1070
     0
1000
MTEXTEND
  0
POINT
  5
2A2
330
29A
100
AcDbEntity
  8
Defpoints
 62
     0
100
AcDbPoint
 10
8415910.75743876
 20
5746277.18247204
 30
0.0
  0
POINT
  5
2A3
330
29A
100
AcDbEntity
  8
Defpoints
 62
     0
100
AcDbPoint
 10
8415915.13711643
 20
5746289.188191988
 30
0.0
  0
POINT
  5
2A4
330
29A
100
AcDbEntity
  8
Defpoints
 62
     0
100
AcDbPoint
 10
8415915.089526226
 20
5746289.20555286
 30
0.0
  0
ENDBLK
  5
2A5
330
29A
100
AcDbEntity
  8
0
100
AcDbBlockEnd
  0
BLOCK
  5
4E3
330
4D9
100
AcDbEntity
  8
0
100
AcDbBlockBegin
  2
*D3
 70
     1
 10
0.0
 20
0.0
 30
0.0
  3
*D3
  1

  0
LINE
  5
4EE
330
4D9
100
AcDbEntity
  8
OPISY NIEBIESKIE
 62
     0
370
    -2
100
AcDbLine
 10
8415910.170287471
 20
5746277.396664394
 30
0.0
 11
8415909.53554598
 21
5746277.628217621
 31
0.0
  0
LINE
  5
4EF
330
4D9
100
AcDbEntity
  8
OPISY NIEBIESKIE
 62
     0
370
    -2
100
AcDbLine
 10
8415914.54996514
 20
5746289.402384341
 30
0.0
 11
8415913.915223649
 21
5746289.633937569
 31
0.0
  0
LINE
  5
4F0
330
4D9
100
AcDbEntity
  8
OPISY NIEBIESKIE
 62
     0
370
    -2
100
AcDbLine
 10
8415911.566617962
 20
5746279.548438068
 30
0.0
 11
8415914.232756817
 21
5746286.856947703
 31
0.0
  0
SOLID
  5
4F1
330
4D9
100
AcDbEntity
  8
OPISY NIEBIESKIE
 62
     0
100
AcDbTrace
 10
8415911.17518377
 20
5746279.691232969
 30
0.0
 11
8415911.958052156
 21
5746279.405643167
 31
0.0
 12
8415910.709848555
 22
5746277.199832912
 32
0.0
 13
8415910.709848555
 23
5746277.199832912
 33
0.0
  0
SOLID
  5
4F2
330
4D9
100
AcDbEntity
  8
OPISY NIEBIESKIE
 62
     0
100
AcDbTrace
 10
8415914.62419101
 20
5746286.714152801
 30
0.0
 11
8415913.841322625
 21
5746286.999742603
 31
0.0
 12
8415915.089526226
 22
5746289.20555286
 32
0.0
 13
8415915.089526226
 23
5746289.20555286
 33
0.0
  0
MTEXT
  5
4F3
330
4D9
100
AcDbEntity
  8
OPISY NIEBIESKIE
 62
     0
100
AcDbMText
 10
8415910.901130137
 20
5746283.931765078
 30
0.0
 40
2.5
 41
0.0
 71
     5
 72
     1
  1
12,78
 11
0.3427077628458949
 21
0.9394420627612765
 31
0.0
 73
     1
 44
1.0
1001
ACAD
1000
MTEXTBEGIN
1070
    73
1070
     1
1070
    44
1040
1.0
1070
    74
1070
     0
1000
MTEXTEND
  0
POINT
  5
4F4
330
4D9
100
AcDbEntity
  8
Defpoints
 62
     0
100
AcDbPoint
 10
8415910.75743876
 20
5746277.18247204
 30
0.0
  0
POINT
  5
4F5
330
4D9
100
AcDbEntity
  8
Defpoints
 62
     0
100
AcDbPoint
 10
8415915.13711643
 20
5746289.188191988
 30
0.0
  0
POINT
  5
4F6
330
4D9
100
AcDbEntity
  8
Defpoints
 62
     0
100
AcDbPoint
 10
8415915.089526226
 20
5746289.20555286
 30
0.0
  0
ENDBLK
  5
4E4
330
4D9
100
AcDbEntity
  8
0
100
AcDbBlockEnd
  0
ENDSEC
  0
SECTION
  2
ENTITIES
  0
TEXT
  5
3AD
330
1F
100
AcDbEntity
  8
dzialka
370
    50
100
AcDbText
 39
0.5
 10
8415836.390876535
 20
5746140.304999999
 30
0.0
 40
2.5
  1
188/1
 41
0.6600000000000001
 72
     1
 11
8415839.275000001
 21
5746141.555
 31
0.0
100
AcDbText
 73
     2
  0
TEXT
  5
3AE
330
1F
100
AcDbEntity
  8
dzialka
370
    50
100
AcDbText
 39
0.5
 10
8415910.875876532
 20
5746110.96
 30
0.0
 40
2.5
  1
188/2
 41
0.6600000000000001
 72
     1
 11
8415913.759999998
 21
5746112.209999999
 31
0.0
100
AcDbText
 73
     2
  0
POLYLINE
  5
3AF
330
1F
100
AcDbEntity
  8
dzialka
  6
Continuous
370
    18
100
AcDb2dPolyline
 66
     1
 10
0.0
 20
0.0
 30
0.0
 70
   129
  0
VERTEX
  5
3B0
330
3AF
100
AcDbEntity
  8
dzialka
100
AcDbVertex
100
AcDb2dVertex
 10
8415726.000000001
 20
5746011.860000001
 30
0.0
  0
VERTEX
  5
3B1
330
3AF
100
AcDbEntity
  8
dzialka
100
AcDbVertex
100
AcDb2dVertex
 10
8415845.449999999
 20
5746314.61
 30
0.0
  0
VERTEX
  5
3B2
330
3AF
100
AcDbEntity
  8
dzialka
100
AcDbVertex
100
AcDb2dVertex
 10
8415952.55
 20
5746275.54
 30
0.0
  0
VERTEX
  5
3B3
330
3AF
100
AcDbEntity
  8
dzialka
100
AcDbVertex
100
AcDb2dVertex
 10
8415831.75
 20
5745968.5
 30
0.0
  0
SEQEND
  5
3B4
330
3AF
100
AcDbEntity
  8
dzialka
  0
POLYLINE
  5
3B5
330
1F
100
AcDbEntity
  8
dzialka
  6
Continuous
370
    18
100
AcDb2dPolyline
 66
     1
 10
0.0
 20
0.0
 30
0.0
 70
   129
  0
VERTEX
  5
3B6
330
3B5
100
AcDbEntity
  8
dzialka
100
AcDbVertex
100
AcDb2dVertex
 10
8415831.75
 20
5745968.5
 30
0.0
  0
VERTEX
  5
3B7
330
3B5
100
AcDbEntity
  8
dzialka
100
AcDbVertex
100
AcDb2dVertex
 10
8415952.55
 20
5746275.54
 30
0.0
  0
VERTEX
  5
3B8
330
3B5
100
AcDbEntity
  8
dzialka
100
AcDbVertex
100
AcDb2dVertex
 10
8415995.77
 20
5746259.78
 30
0.0
  0
VERTEX
  5
3B9
330
3B5
100
AcDbEntity
  8
dzialka
100
AcDbVertex
100
AcDb2dVertex
 10
8415879.590000001
 20
5745948.879999999
 30
0.0
  0
SEQEND
  5
3BA
330
3B5
100
AcDbEntity
  8
dzialka
  0
CIRCLE
  5
3BB
330
1F
100
AcDbEntity
  8
3 - CIENKA LINIA POMOCNICZA
100
AcDbCircle
 10
8415821.561791521
 20
5746235.676757049
 30
0.0
 40
0.6179488032423213
  0
CIRCLE
  5
3BC
330
1F
100
AcDbEntity
  8
3 - CIENKA LINIA POMOCNICZA
100
AcDbCircle
 10
8415821.561791521
 20
5746235.676757049
 30
0.0
 40
1.633818894427309
  0
CIRCLE
  5
3BD
330
1F
100
AcDbEntity
  8
3 - CIENKA LINIA POMOCNICZA
100
AcDbCircle
 10
8415909.686315591
 20
5746073.363455487
 30
0.0
 40
0.6179488032423213
  0
LWPOLYLINE
  5
3BE
330
1F
100
AcDbEntity
  8
3 - CIENKA LINIA POMOCNICZA
100
AcDbPolyline
 90
      223
 70
     0
 43
0.0
 10
8415805.543856233
 20
5745985.885655095
 10
8415805.589383563
 20
5745985.996683299
 10
8415805.673643571
 20
5745985.962132321
 10
8415805.62811624
 20
5745985.851104116
 10
8415805.776153845
 20
5745985.790401009
 10
8415805.821681175
 20
5745985.901429214
 10
8415808.560376889
 20
5745984.778421741
 10
8415808.51484956
 20
5745984.667393535
 10
8415808.662887167
 20
5745984.60669043
 10
8415808.708414497
 20
5745984.717718633
 10
8415809.180284366
 20
5745984.524227481
 10
8415809.134757036
 20
5745984.413199277
 10
8415809.282794644
 20
5745984.35249617
 10
8415809.328321973
 20
5745984.463524376
 10
8415812.067017688
 20
5745983.340516901
 10
8415812.021490358
 20
5745983.229488698
 10
8415812.169527963
 20
5745983.168785591
 10
8415812.215055293
 20
5745983.279813795
 10
8415813.116696838
 20
5745982.910093937
 10
8415813.071169509
 20
5745982.799065732
 10
8415813.219207114
 20
5745982.738362625
 10
8415813.264734444
 20
5745982.84939083
 10
8415813.334590906
 20
5745982.820746052
 10
8415813.300631256
 20
5745982.737928129
 10
8415813.411659462
 20
5745982.692400799
 10
8415813.495126233
 20
5745982.895952507
 10
8415813.384098026
 20
5745982.941479838
 10
8415814.438814505
 20
5745985.513633245
 10
8415814.549842712
 20
5745985.468105915
 10
8415814.633309482
 20
5745985.671657623
 10
8415814.522281278
 20
5745985.717184955
 10
8415815.576997758
 20
5745988.28933836
 10
8415815.688025961
 20
5745988.243811031
 10
8415815.771492733
 20
5745988.447362739
 10
8415815.660464527
 20
5745988.492890067
 10
8415816.715181005
 20
5745991.065043476
 10
8415816.82620921
 20
5745991.019516146
 10
8415816.909675982
 20
5745991.223067854
 10
8415816.798647776
 20
5745991.268595185
 10
8415817.853364256
 20
5745993.840748592
 10
8415817.964392461
 20
5745993.795221262
 10
8415818.047859232
 20
5745993.99877297
 10
8415817.936831027
 20
5745994.0443003
 10
8415818.991547507
 20
5745996.616453708
 10
8415819.10257571
 20
5745996.570926378
 10
8415819.186042481
 20
5745996.774478085
 10
8415819.075014278
 20
5745996.820005416
 10
8415820.129730755
 20
5745999.392158823
 10
8415820.240758959
 20
5745999.346631493
 10
8415820.324225732
 20
5745999.550183202
 10
8415820.213197525
 20
5745999.595710531
 10
8415821.267914004
 20
5746002.167863941
 10
8415821.37894221
 20
5746002.12233661
 10
8415821.462408983
 20
5746002.325888317
 10
8415821.351380776
 20
5746002.371415648
 10
8415822.406097257
 20
5746004.943569056
 10
8415822.517125459
 20
5746004.898041725
 10
8415822.600592232
 20
5746005.101593434
 10
8415822.489564027
 20
5746005.147120763
 10
8415823.544280504
 20
5746007.719274172
 10
8415823.65530871
 20
5746007.673746841
 10
8415823.738775481
 20
5746007.87729855
 10
8415823.627747275
 20
5746007.922825879
 10
8415824.682463755
 20
5746010.494979287
 10
8415824.79349196
 20
5746010.449451956
 10
8415824.876958732
 20
5746010.653003666
 10
8415824.765930526
 20
5746010.698530995
 10
8415825.820647006
 20
5746013.270684403
 10
8415825.931675209
 20
5746013.225157073
 10
8415826.015141981
 20
5746013.428708781
 10
8415825.904113775
 20
5746013.474236112
 10
8415826.958830255
 20
5746016.046389519
 10
8415827.069858458
 20
5746016.000862189
 10
8415827.15332523
 20
5746016.204413897
 10
8415827.042297026
 20
5746016.249941227
 10
8415828.097013504
 20
5746018.822094635
 10
8415828.208041709
 20
5746018.776567304
 10
8415828.291508482
 20
5746018.980119012
 10
8415828.180480275
 20
5746019.025646343
 10
8415829.235196754
 20
5746021.597799751
 10
8415829.346224958
 20
5746021.55227242
 10
8415829.429691729
 20
5746021.755824129
 10
8415829.318663524
 20
5746021.801351458
 10
8415830.373380003
 20
5746024.373504867
 10
8415830.484408207
 20
5746024.327977536
 10
8415830.56787498
 20
5746024.531529244
 10
8415830.456846775
 20
5746024.577056574
 10
8415831.511563252
 20
5746027.149209983
 10
8415831.622591458
 20
5746027.103682652
 10
8415831.706058231
 20
5746027.30723436
 10
8415831.595030025
 20
5746027.35276169
 10
8415832.649746503
 20
5746029.924915099
 10
8415832.760774708
 20
5746029.879387767
 10
8415832.84424148
 20
5746030.082939475
 10
8415832.733213276
 20
5746030.128466807
 10
8415833.787929752
 20
5746032.700620212
 10
8415833.898957956
 20
5746032.655092883
 10
8415833.982424729
 20
5746032.858644591
 10
8415833.871396525
 20
5746032.904171922
 10
8415834.926113003
 20
5746035.476325329
 10
8415835.037141206
 20
5746035.430797999
 10
8415835.12060798
 20
5746035.634349707
 10
8415835.009579774
 20
5746035.679877038
 10
8415836.064296254
 20
5746038.252030444
 10
8415836.175324457
 20
5746038.206503114
 10
8415836.258791228
 20
5746038.410054824
 10
8415836.147763025
 20
5746038.455582154
 10
8415837.202479503
 20
5746041.02773556
 10
8415837.313507706
 20
5746040.982208231
 10
8415837.396974477
 20
5746041.185759939
 10
8415837.285946274
 20
5746041.23128727
 10
8415838.340662752
 20
5746043.803440676
 10
8415838.451690957
 20
5746043.757913346
 10
8415838.535157728
 20
5746043.961465055
 10
8415838.424129523
 20
5746044.006992385
 10
8415839.478846002
 20
5746046.579145792
 10
8415839.589874206
 20
5746046.533618462
 10
8415839.673340979
 20
5746046.737170171
 10
8415839.562312775
 20
5746046.782697501
 10
8415840.617029251
 20
5746049.354850907
 10
8415840.728057455
 20
5746049.309323579
 10
8415840.811524228
 20
5746049.512875287
 10
8415840.700496023
 20
5746049.558402618
 10
8415841.7552125
 20
5746052.130556023
 10
8415841.866240706
 20
5746052.085028694
 10
8415841.949707479
 20
5746052.288580402
 10
8415841.838679273
 20
5746052.334107734
 10
8415842.893395751
 20
5746054.90626114
 10
8415843.004423956
 20
5746054.86073381
 10
8415843.087890728
 20
5746055.064285518
 10
8415842.976862524
 20
5746055.109812849
 10
8415844.031579002
 20
5746057.681966256
 10
8415844.142607204
 20
5746057.636438925
 10
8415844.226073977
 20
5746057.839990633
 10
8415844.115045773
 20
5746057.885517965
 10
8415845.169762249
 20
5746060.457671371
 10
8415845.280790456
 20
5746060.412144041
 10
8415845.364257227
 20
5746060.61569575
 10
8415845.253229022
 20
5746060.661223078
 10
8415846.3079455
 20
5746063.233376487
 10
8415846.418973705
 20
5746063.187849157
 10
8415846.502440476
 20
5746063.391400865
 10
8415846.391412273
 20
5746063.436928195
 10
8415847.446128751
 20
5746066.009081602
 10
8415847.557156954
 20
5746065.963554273
 10
8415847.640623725
 20
5746066.167105981
 10
8415847.529595522
 20
5746066.212633311
 10
8415848.584312
 20
5746068.784786719
 10
8415848.695340205
 20
5746068.739259388
 10
8415848.778806976
 20
5746068.942811096
 10
8415848.667778771
 20
5746068.988338427
 10
8415849.72249525
 20
5746071.560491834
 10
8415849.833523454
 20
5746071.514964504
 10
8415849.916990227
 20
5746071.718516212
 10
8415849.805962022
 20
5746071.764043542
 10
8415850.860678499
 20
5746074.336196951
 10
8415850.971706703
 20
5746074.29066962
 10
8415851.055173474
 20
5746074.494221329
 10
8415850.944145272
 20
5746074.539748658
 10
8415851.998861748
 20
5746077.111902066
 10
8415852.109889955
 20
5746077.066374736
 10
8415852.193356727
 20
5746077.269926445
 10
8415852.082328521
 20
5746077.315453773
 10
8415853.137044999
 20
5746079.887607183
 10
8415853.248073203
 20
5746079.842079852
 10
8415853.331539976
 20
5746080.04563156
 10
8415853.220511772
 20
5746080.09115889
 10
8415854.27522825
 20
5746082.663312298
 10
8415854.386256453
 20
5746082.617784967
 10
8415854.469723225
 20
5746082.821336677
 10
8415854.358695021
 20
5746082.866864006
 10
8415855.413411497
 20
5746085.439017414
 10
8415855.524439704
 20
5746085.393490083
 10
8415855.607906475
 20
5746085.597041792
 10
8415855.49687827
 20
5746085.642569122
 10
8415856.55159475
 20
5746088.214722529
 10
8415856.662622953
 20
5746088.1691952
 10
8415856.746089726
 20
5746088.372746908
 10
8415856.635061521
 20
5746088.418274238
 10
8415857.689777999
 20
5746090.990427645
 10
8415857.800806204
 20
5746090.944900315
 10
8415857.884272973
 20
5746091.148452023
 10
8415857.77324477
 20
5746091.193979354
 10
8415858.827961248
 20
5746093.766132762
 10
8415858.938989453
 20
5746093.720605431
 10
8415859.022456224
 20
5746093.924157139
 10
8415858.911428019
 20
5746093.969684469
 10
8415859.966144498
 20
5746096.541837878
 10
8415860.077172702
 20
5746096.496310546
 10
8415860.160639475
 20
5746096.699862255
 10
8415860.04961127
 20
5746096.745389585
 10
8415861.104327747
 20
5746099.317542993
 10
8415861.215355953
 20
5746099.272015662
 10
8415861.298822724
 20
5746099.475567371
 10
8415861.18779452
 20
5746099.5210947
 10
8415862.242510996
 20
5746102.09324811
 10
8415862.353539203
 20
5746102.047720778
 10
8415862.437005975
 20
5746102.251272486
 10
8415862.325977768
 20
5746102.296799818
 10
8415863.380694249
 20
5746104.868953223
 10
8415863.491722451
 20
5746104.823425894
 10
8415863.575189224
 20
5746105.026977602
 10
8415863.46416102
 20
5746105.072504933
 10
8415864.518877496
 20
5746107.64465834
 10
8415864.629905703
 20
5746107.599131009
 10
8415864.713372473
 20
5746107.802682717
 10
8415864.602344269
 20
5746107.848210049
 10
8415865.657060747
 20
5746110.420363455
 10
8415865.768088952
 20
5746110.374836125
 10
8415865.851555723
 20
5746110.578387835
 10
8415865.740527518
 20
5746110.623915164
 10
8415866.795243998
 20
5746113.196068571
 10
8415866.906272203
 20
5746113.150541241
 10
8415866.989738972
 20
5746113.35409295
 10
8415866.878710769
 20
5746113.399620281
 10
8415868.028275852
 20
5746116.203082447
 10
8415868.139304055
 20
5746116.157555117
 10
8415868.222770827
 20
5746116.361106825
 10
8415868.111742623
 20
5746116.406634155
 10
8415868.170548717
 20
5746116.550045491
 10
8415870.150987613
 20
5746121.379772489
 10
8415861.759645014
 20
5746124.820711891
 10
8415859.779224817
 20
5746119.991030485
  0
LWPOLYLINE
  5
3BF
330
1F
100
AcDbEntity
  8
3 - CIENKA LINIA POMOCNICZA
100
AcDbPolyline
 90
      243
 70
     0
 43
0.0
 10
8415859.54009732
 20
5746119.829590595
 10
8415855.995923276
 20
5746121.282880757
 10
8415856.041450608
 20
5746121.393908962
 10
8415855.893412999
 20
5746121.454612068
 10
8415855.847885671
 20
5746121.343583864
 10
8415853.109189958
 20
5746122.466591336
 10
8415853.154717286
 20
5746122.577619542
 10
8415853.006679681
 20
5746122.638322648
 10
8415852.961152351
 20
5746122.527294443
 10
8415852.526291882
 20
5746122.70560982
 10
8415852.571819213
 20
5746122.816638023
 10
8415852.423781606
 20
5746122.877341131
 10
8415852.378254276
 20
5746122.766312926
 10
8415849.639558562
 20
5746123.889320399
 10
8415849.685085893
 20
5746124.000348604
 10
8415849.537048284
 20
5746124.061051711
 10
8415849.537048284
 20
5746124.061051711
 10
8415849.491520956
 20
5746123.950023505
 10
8415848.589879411
 20
5746124.319743366
 10
8415848.63540674
 20
5746124.430771569
 10
8415848.487369133
 20
5746124.491474676
 10
8415848.441841804
 20
5746124.380446472
 10
8415848.381563735
 20
5746124.405163609
 10
8415848.413812261
 20
5746124.483808586
 10
8415848.302784057
 20
5746124.529335918
 10
8415848.219317286
 20
5746124.32578421
 10
8415848.33034549
 20
5746124.280256879
 10
8415847.180780406
 20
5746121.476794713
 10
8415847.069752203
 20
5746121.522322042
 10
8415846.986285432
 20
5746121.318770334
 10
8415847.097313635
 20
5746121.273243003
 10
8415846.042597163
 20
5746118.701089596
 10
8415845.931568952
 20
5746118.746616927
 10
8415845.848102183
 20
5746118.543065218
 10
8415845.959130386
 20
5746118.497537887
 10
8415844.904413908
 20
5746115.925384481
 10
8415844.793385703
 20
5746115.970911811
 10
8415844.70991893
 20
5746115.767360103
 10
8415844.820947139
 20
5746115.721832771
 10
8415843.766230658
 20
5746113.149679366
 10
8415843.655202454
 20
5746113.195206695
 10
8415843.571735683
 20
5746112.991654987
 10
8415843.682763886
 20
5746112.946127656
 10
8415842.628047409
 20
5746110.373974249
 10
8415842.517019203
 20
5746110.419501579
 10
8415842.433552432
 20
5746110.215949872
 10
8415842.544580639
 20
5746110.17042254
 10
8415841.48986416
 20
5746107.598269134
 10
8415841.378835954
 20
5746107.643796464
 10
8415841.295369181
 20
5746107.440244755
 10
8415841.406397387
 20
5746107.394717426
 10
8415840.351680909
 20
5746104.822564018
 10
8415840.240652704
 20
5746104.868091348
 10
8415840.157185932
 20
5746104.66453964
 10
8415840.268214141
 20
5746104.619012308
 10
8415839.21349766
 20
5746102.046858903
 10
8415839.102469453
 20
5746102.092386232
 10
8415839.019002683
 20
5746101.888834524
 10
8415839.130030887
 20
5746101.843307194
 10
8415838.075314409
 20
5746099.271153787
 10
8415837.964286206
 20
5746099.316681116
 10
8415837.880819433
 20
5746099.113129409
 10
8415837.991847638
 20
5746099.067602078
 10
8415836.937131158
 20
5746096.49544867
 10
8415836.826102953
 20
5746096.540976001
 10
8415836.742636184
 20
5746096.337424291
 10
8415836.853664389
 20
5746096.29189696
 10
8415835.79894791
 20
5746093.719743554
 10
8415835.687919704
 20
5746093.765270885
 10
8415835.604452933
 20
5746093.561719176
 10
8415835.715481138
 20
5746093.516191847
 10
8415834.660764661
 20
5746090.944038439
 10
8415834.549736455
 20
5746090.98956577
 10
8415834.466269682
 20
5746090.78601406
 10
8415834.577297889
 20
5746090.740486732
 10
8415833.522581412
 20
5746088.168333322
 10
8415833.411553204
 20
5746088.213860653
 10
8415833.328086435
 20
5746088.010308945
 10
8415833.439114637
 20
5746087.964781614
 10
8415832.384398161
 20
5746085.392628207
 10
8415832.273369954
 20
5746085.438155537
 10
8415832.189903184
 20
5746085.234603829
 10
8415832.30093139
 20
5746085.189076498
 10
8415831.246214912
 20
5746082.616923091
 10
8415831.135186707
 20
5746082.662450421
 10
8415831.051719933
 20
5746082.458898713
 10
8415831.162748139
 20
5746082.413371383
 10
8415830.108031661
 20
5746079.841217976
 10
8415829.997003456
 20
5746079.886745305
 10
8415829.913536684
 20
5746079.683193597
 10
8415830.024564888
 20
5746079.637666268
 10
8415828.96984841
 20
5746077.065512858
 10
8415828.858820205
 20
5746077.11104019
 10
8415828.775353435
 20
5746076.907488481
 10
8415828.886381639
 20
5746076.861961151
 10
8415827.83166516
 20
5746074.289807743
 10
8415827.720636956
 20
5746074.335335074
 10
8415827.637170185
 20
5746074.131783366
 10
8415827.74819839
 20
5746074.086256036
 10
8415826.693481912
 20
5746071.514102627
 10
8415826.582453705
 20
5746071.559629958
 10
8415826.498986936
 20
5746071.356078251
 10
8415826.610015139
 20
5746071.31055092
 10
8415825.555298662
 20
5746068.738397512
 10
8415825.444270456
 20
5746068.783924843
 10
8415825.360803683
 20
5746068.580373134
 10
8415825.47183189
 20
5746068.534845803
 10
8415824.417115413
 20
5746065.962692397
 10
8415824.306087207
 20
5746066.008219727
 10
8415824.222620436
 20
5746065.804668019
 10
8415824.33364864
 20
5746065.759140687
 10
8415823.278932162
 20
5746063.186987282
 10
8415823.167903957
 20
5746063.232514611
 10
8415823.084437185
 20
5746063.028962903
 10
8415823.195465389
 20
5746062.983435572
 10
8415822.140748913
 20
5746060.411282164
 10
8415822.029720708
 20
5746060.456809495
 10
8415821.946253934
 20
5746060.253257787
 10
8415822.05728214
 20
5746060.207730456
 10
8415821.00256566
 20
5746057.63557705
 10
8415820.891537457
 20
5746057.68110438
 10
8415820.808070685
 20
5746057.47755267
 10
8415820.919098891
 20
5746057.432025341
 10
8415819.864382413
 20
5746054.859871933
 10
8415819.753354206
 20
5746054.905399264
 10
8415819.669887437
 20
5746054.701847555
 10
8415819.78091564
 20
5746054.656320224
 10
8415818.726199162
 20
5746052.084166818
 10
8415818.615170959
 20
5746052.129694148
 10
8415818.531704186
 20
5746051.926142439
 10
8415818.642732391
 20
5746051.880615109
 10
8415817.588015912
 20
5746049.308461703
 10
8415817.476987708
 20
5746049.353989032
 10
8415817.393520937
 20
5746049.150437324
 10
8415817.504549142
 20
5746049.104909992
 10
8415816.449832663
 20
5746046.532756587
 10
8415816.338804457
 20
5746046.578283916
 10
8415816.255337686
 20
5746046.374732208
 10
8415816.366365891
 20
5746046.329204877
 10
8415815.311649412
 20
5746043.75705147
 10
8415815.200621208
 20
5746043.8025788
 10
8415815.117154435
 20
5746043.599027092
 10
8415815.228182642
 20
5746043.55349976
 10
8415814.173466165
 20
5746040.981346353
 10
8415814.062437959
 20
5746041.026873684
 10
8415813.978971188
 20
5746040.823321975
 10
8415814.089999393
 20
5746040.777794645
 10
8415813.035282914
 20
5746038.205641239
 10
8415812.924254707
 20
5746038.251168569
 10
8415812.840787936
 20
5746038.047616861
 10
8415812.951816143
 20
5746038.00208953
 10
8415811.897099663
 20
5746035.429936123
 10
8415811.78607146
 20
5746035.475463453
 10
8415811.702604687
 20
5746035.271911745
 10
8415811.813632892
 20
5746035.226384415
 10
8415810.758916414
 20
5746032.654231007
 10
8415810.647888209
 20
5746032.699758337
 10
8415810.564421438
 20
5746032.49620663
 10
8415810.675449645
 20
5746032.450679298
 10
8415809.620733163
 20
5746029.878525892
 10
8415809.509704958
 20
5746029.924053222
 10
8415809.426238187
 20
5746029.720501513
 10
8415809.537266392
 20
5746029.674974182
 10
8415808.482549913
 20
5746027.102820776
 10
8415808.371521709
 20
5746027.148348106
 10
8415808.288054938
 20
5746026.944796398
 10
8415808.399083143
 20
5746026.899269066
 10
8415807.344366665
 20
5746024.327115659
 10
8415807.23333846
 20
5746024.37264299
 10
8415807.149871689
 20
5746024.169091281
 10
8415807.260899892
 20
5746024.123563952
 10
8415806.206183415
 20
5746021.551410543
 10
8415806.095155209
 20
5746021.596937874
 10
8415806.011688438
 20
5746021.393386165
 10
8415806.122716643
 20
5746021.347858835
 10
8415805.068000164
 20
5746018.775705428
 10
8415804.95697196
 20
5746018.821232759
 10
8415804.873505189
 20
5746018.617681049
 10
8415804.984533393
 20
5746018.57215372
 10
8415803.929816917
 20
5746016.000000312
 10
8415803.818788711
 20
5746016.045527643
 10
8415803.735321938
 20
5746015.841975934
 10
8415803.846350145
 20
5746015.796448603
 10
8415802.791633666
 20
5746013.224295196
 10
8415802.680605461
 20
5746013.269822526
 10
8415802.597138688
 20
5746013.066270818
 10
8415802.708166895
 20
5746013.020743488
 10
8415801.653450413
 20
5746010.44859008
 10
8415801.542422212
 20
5746010.494117411
 10
8415801.458955439
 20
5746010.290565703
 10
8415801.569983642
 20
5746010.245038372
 10
8415800.515267166
 20
5746007.672884965
 10
8415800.404238961
 20
5746007.718412295
 10
8415800.32077219
 20
5746007.514860586
 10
8415800.431800393
 20
5746007.469333257
 10
8415799.377083915
 20
5746004.897179848
 10
8415799.26605571
 20
5746004.942707179
 10
8415799.182588939
 20
5746004.73915547
 10
8415799.293617144
 20
5746004.693628141
 10
8415798.238900665
 20
5746002.121474732
 10
8415798.127872461
 20
5746002.167002063
 10
8415798.04440569
 20
5746001.963450355
 10
8415798.155433893
 20
5746001.917923025
 10
8415797.100717416
 20
5745999.345769616
 10
8415796.989689212
 20
5745999.391296948
 10
8415796.906222439
 20
5745999.18774524
 10
8415797.017250644
 20
5745999.142217909
 10
8415795.962534167
 20
5745996.570064501
 10
8415795.851505961
 20
5745996.615591832
 10
8415795.768039188
 20
5745996.412040124
 10
8415795.879067395
 20
5745996.366512793
 10
8415794.824350916
 20
5745993.794359387
 10
8415794.713322712
 20
5745993.839886716
 10
8415794.629855941
 20
5745993.636335008
 10
8415794.740884143
 20
5745993.590807677
 10
8415793.686167667
 20
5745991.018654271
 10
8415793.575139463
 20
5745991.064181601
 10
8415793.49167269
 20
5745990.860629892
 10
8415793.602700896
 20
5745990.815102561
 10
8415793.636660543
 20
5745990.897920485
 10
8415793.696938612
 20
5745990.873203347
 10
8415793.651411282
 20
5745990.762175142
 10
8415793.79944889
 20
5745990.701472036
 10
8415793.844976217
 20
5745990.81250024
 10
8415794.746617764
 20
5745990.442780381
 10
8415794.701090435
 20
5745990.331752176
 10
8415794.849128042
 20
5745990.27104907
 10
8415794.894655372
 20
5745990.382077273
 10
8415797.633351084
 20
5745989.259069801
 10
8415797.587823755
 20
5745989.148041596
 10
8415797.735861362
 20
5745989.087338489
 10
8415797.78138869
 20
5745989.198366695
 10
8415798.216249159
 20
5745989.020051318
 10
8415798.170721828
 20
5745988.909023115
 10
8415798.318759435
 20
5745988.848320007
 10
8415798.364286766
 20
5745988.959348212
 10
8415801.102982481
 20
5745987.836340739
 10
8415801.057455151
 20
5745987.725312533
 10
8415801.205492755
 20
5745987.664609428
 10
8415801.251020084
 20
5745987.775637632
 10
8415801.372293508
 20
5745987.725909231
 10
8415801.326766178
 20
5745987.614881027
 10
8415801.474803785
 20
5745987.55417792
  0
LWPOLYLINE
  5
3C0
330
1F
100
AcDbEntity
  8
3 - CIENKA LINIA POMOCNICZA
100
AcDbPolyline
 90
        2
 70
     0
 43
0.0
 10
8415859.779187426
 20
5746119.990939299
 10
8415859.733662202
 20
5746119.8799159
  0
LWPOLYLINE
  5
3C1
330
1F
100
AcDbEntity
  8
3 - CIENKA LINIA POMOCNICZA
100
AcDbPolyline
 90
        3
 70
     0
 43
0.0
 10
8415859.540097386
 20
5746119.829590752
 10
8415859.585624716
 20
5746119.940618958
 10
8415859.733662323
 20
5746119.879915851
  0
LWPOLYLINE
  5
3C2
330
1F
100
AcDbEntity
  8
3 - CIENKA LINIA POMOCNICZA
100
AcDbPolyline
 90
        8
 70
     0
 43
0.0
 10
8415805.589383563
 20
5745985.996683299
 10
8415805.543856233
 20
5745985.885655096
 10
8415805.39581863
 20
5745985.946358202
 10
8415805.441345957
 20
5745986.057386404
 10
8415801.520331115
 20
5745987.665206124
 10
8415801.474803785
 20
5745987.55417792
 10
8415801.326766178
 20
5745987.614881027
 10
8415801.372293508
 20
5745987.725909231
  0
LWPOLYLINE
  5
3C3
330
1F
100
AcDbEntity
  8
3 - CIENKA LINIA POMOCNICZA
100
AcDbPolyline
 90
        7
 70
     0
 43
0.0
 10
8415793.957841129
 20
5745991.034110301
 10
8415813.193065353
 20
5745983.146416976
 10
8415869.818971682
 20
5746121.240877593
 10
8415861.898556769
 20
5746124.488659043
 10
8415859.800363133
 20
5746119.371761732
 10
8415848.485404538
 20
5746124.01132139
 10
8415793.957849929
 20
5745991.034115636
  0
LWPOLYLINE
  5
3C4
330
1F
100
AcDbEntity
  8
3 - CIENKA LINIA POMOCNICZA
100
AcDbPolyline
 90
        5
 70
     0
 43
0.0
 10
8415848.241020903
 20
5746124.722293311
 10
8415793.312259959
 20
5745990.76667343
 10
8415813.46388153
 20
5745982.503462037
 10
8415868.392547041
 20
5746116.459014761
 10
8415868.170548717
 20
5746116.550045491
  0
LWPOLYLINE
  5
3C5
330
1F
100
AcDbEntity
  8
3 - CIENKA LINIA POMOCNICZA
100
AcDbPolyline
 90
        2
 70
     0
 43
0.0
 10
8415848.240983553
 20
5746124.722202222
 10
8415859.779187426
 20
5746119.990939299
  0
LWPOLYLINE
  5
3C6
330
1F
100
AcDbEntity
  8
3 - CIENKA LINIA POMOCNICZA
100
AcDbPolyline
 90
      223
 70
     0
 43
0.0
 10
8415831.655906075
 20
5745975.178371118
 10
8415831.70143334
 20
5745975.289399346
 10
8415831.617173312
 20
5745975.323950276
 10
8415831.57164605
 20
5745975.212922045
 10
8415831.423608407
 20
5745975.273625066
 10
8415831.469135669
 20
5745975.384653295
 10
8415828.730439292
 20
5745976.50765915
 10
8415828.68491203
 20
5745976.396630917
 10
8415828.536874387
 20
5745976.457333938
 10
8415828.582401649
 20
5745976.568362168
 10
8415828.110531665
 20
5745976.761853041
 10
8415828.065004401
 20
5745976.65082481
 10
8415827.91696676
 20
5745976.711527829
 10
8415827.962494025
 20
5745976.82255606
 10
8415825.223797645
 20
5745977.945561914
 10
8415825.178270381
 20
5745977.834533683
 10
8415825.030232738
 20
5745977.895236701
 10
8415825.075760004
 20
5745978.006264933
 10
8415824.174118242
 20
5745978.37598426
 10
8415824.128590978
 20
5745978.264956028
 10
8415823.980553334
 20
5745978.325659047
 10
8415824.026080599
 20
5745978.436687279
 10
8415823.956224119
 20
5745978.465332013
 10
8415823.922264518
 20
5745978.38251407
 10
8415823.811236286
 20
5745978.428041334
 10
8415823.894702938
 20
5745978.631593092
 10
8415824.005731169
 20
5745978.586065827
 10
8415825.060446127
 20
5745981.158219859
 10
8415824.949417894
 20
5745981.203747125
 10
8415825.032884546
 20
5745981.407298883
 10
8415825.143912778
 20
5745981.361771618
 10
8415826.198627735
 20
5745983.933925648
 10
8415826.087599503
 20
5745983.979452912
 10
8415826.171066154
 20
5745984.18300467
 10
8415826.282094386
 20
5745984.137477406
 10
8415827.336809343
 20
5745986.709631437
 10
8415827.225781111
 20
5745986.755158701
 10
8415827.309247761
 20
5745986.958710459
 10
8415827.420275993
 20
5745986.913183195
 10
8415828.47499095
 20
5745989.485337227
 10
8415828.36396272
 20
5745989.53086449
 10
8415828.447429371
 20
5745989.734416249
 10
8415828.558457603
 20
5745989.688888985
 10
8415829.613172558
 20
5745992.261043014
 10
8415829.502144328
 20
5745992.306570279
 10
8415829.585610978
 20
5745992.510122038
 10
8415829.69663921
 20
5745992.464594772
 10
8415830.751354167
 20
5745995.036748805
 10
8415830.640325935
 20
5745995.08227607
 10
8415830.723792588
 20
5745995.285827826
 10
8415830.834820818
 20
5745995.240300561
 10
8415831.889535777
 20
5745997.812454593
 10
8415831.778507543
 20
5745997.857981858
 10
8415831.861974195
 20
5745998.061533616
 10
8415831.973002426
 20
5745998.016006351
 10
8415833.027717384
 20
5746000.588160382
 10
8415832.916689151
 20
5746000.633687645
 10
8415833.000155803
 20
5746000.837239404
 10
8415833.111184035
 20
5746000.79171214
 10
8415834.165898992
 20
5746003.363866171
 10
8415834.05487076
 20
5746003.409393437
 10
8415834.138337411
 20
5746003.612945193
 10
8415834.249365643
 20
5746003.567417927
 10
8415835.3040806
 20
5746006.13957196
 10
8415835.19305237
 20
5746006.185099225
 10
8415835.276519018
 20
5746006.388650982
 10
8415835.387547252
 20
5746006.343123719
 10
8415836.442262207
 20
5746008.915277748
 10
8415836.331233977
 20
5746008.960805013
 10
8415836.414700628
 20
5746009.164356771
 10
8415836.52572886
 20
5746009.118829506
 10
8415837.580443817
 20
5746011.690983539
 10
8415837.469415585
 20
5746011.736510803
 10
8415837.552882235
 20
5746011.940062559
 10
8415837.663910467
 20
5746011.894535294
 10
8415838.718625426
 20
5746014.466689326
 10
8415838.607597194
 20
5746014.512216592
 10
8415838.691063845
 20
5746014.715768349
 10
8415838.802092075
 20
5746014.670241085
 10
8415839.856807034
 20
5746017.242395115
 10
8415839.745778804
 20
5746017.287922379
 10
8415839.829245452
 20
5746017.491474137
 10
8415839.940273682
 20
5746017.445946874
 10
8415840.994988641
 20
5746020.018100905
 10
8415840.883960411
 20
5746020.063628169
 10
8415840.967427062
 20
5746020.267179927
 10
8415841.078455294
 20
5746020.221652663
 10
8415842.133170251
 20
5746022.793806694
 10
8415842.022142019
 20
5746022.839333958
 10
8415842.105608671
 20
5746023.042885716
 10
8415842.216636901
 20
5746022.997358452
 10
8415843.271351858
 20
5746025.569512482
 10
8415843.160323627
 20
5746025.615039747
 10
8415843.243790279
 20
5746025.818591505
 10
8415843.354818509
 20
5746025.773064239
 10
8415844.409533468
 20
5746028.345218272
 10
8415844.298505236
 20
5746028.390745537
 10
8415844.381971886
 20
5746028.594297294
 10
8415844.493000118
 20
5746028.54877003
 10
8415845.547715075
 20
5746031.12092406
 10
8415845.436686844
 20
5746031.166451324
 10
8415845.520153494
 20
5746031.370003082
 10
8415845.631181726
 20
5746031.324475818
 10
8415846.685896683
 20
5746033.896629849
 10
8415846.574868451
 20
5746033.942157112
 10
8415846.658335102
 20
5746034.145708871
 10
8415846.769363335
 20
5746034.100181607
 10
8415847.824078291
 20
5746036.672335638
 10
8415847.713050061
 20
5746036.717862903
 10
8415847.796516711
 20
5746036.921414661
 10
8415847.907544943
 20
5746036.875887397
 10
8415848.9622599
 20
5746039.448041427
 10
8415848.851231668
 20
5746039.493568692
 10
8415848.934698319
 20
5746039.697120449
 10
8415849.045726551
 20
5746039.651593185
 10
8415850.100441508
 20
5746042.223747215
 10
8415849.989413276
 20
5746042.269274481
 10
8415850.072879928
 20
5746042.472826237
 10
8415850.183908158
 20
5746042.427298973
 10
8415851.238623115
 20
5746044.999453005
 10
8415851.127594885
 20
5746045.04498027
 10
8415851.211061536
 20
5746045.248532028
 10
8415851.322089768
 20
5746045.203004763
 10
8415852.376804725
 20
5746047.775158793
 10
8415852.265776493
 20
5746047.820686057
 10
8415852.349243143
 20
5746048.024237816
 10
8415852.460271375
 20
5746047.978710552
 10
8415853.514986332
 20
5746050.550864582
 10
8415853.4039581
 20
5746050.596391846
 10
8415853.487424751
 20
5746050.799943605
 10
8415853.598452983
 20
5746050.754416341
 10
8415854.65316794
 20
5746053.326570372
 10
8415854.542139708
 20
5746053.372097637
 10
8415854.62560636
 20
5746053.575649394
 10
8415854.736634592
 20
5746053.53012213
 10
8415855.791349549
 20
5746056.10227616
 10
8415855.680321318
 20
5746056.147803425
 10
8415855.763787968
 20
5746056.351355183
 10
8415855.8748162
 20
5746056.305827918
 10
8415856.929531157
 20
5746058.877981949
 10
8415856.818502925
 20
5746058.923509212
 10
8415856.901969576
 20
5746059.127060971
 10
8415857.012997808
 20
5746059.081533707
 10
8415858.067712765
 20
5746061.653687738
 10
8415857.956684535
 20
5746061.699215004
 10
8415858.040151185
 20
5746061.902766761
 10
8415858.151179417
 20
5746061.857239497
 10
8415859.205894374
 20
5746064.429393527
 10
8415859.094866142
 20
5746064.474920792
 10
8415859.178332793
 20
5746064.678472549
 10
8415859.289361025
 20
5746064.632945286
 10
8415860.344075982
 20
5746067.205099317
 10
8415860.23304775
 20
5746067.250626582
 10
8415860.3165144
 20
5746067.454178338
 10
8415860.427542632
 20
5746067.408651073
 10
8415861.482257589
 20
5746069.980805105
 10
8415861.371229357
 20
5746070.02633237
 10
8415861.45469601
 20
5746070.229884128
 10
8415861.56572424
 20
5746070.184356864
 10
8415862.620439199
 20
5746072.756510893
 10
8415862.509410967
 20
5746072.802038159
 10
8415862.592877617
 20
5746073.005589916
 10
8415862.703905849
 20
5746072.960062652
 10
8415863.758620806
 20
5746075.532216685
 10
8415863.647592574
 20
5746075.577743948
 10
8415863.731059225
 20
5746075.781295704
 10
8415863.842087457
 20
5746075.735768441
 10
8415864.896802414
 20
5746078.307922472
 10
8415864.785774184
 20
5746078.353449737
 10
8415864.869240833
 20
5746078.557001494
 10
8415864.980269065
 20
5746078.51147423
 10
8415866.034984022
 20
5746081.08362826
 10
8415865.923955792
 20
5746081.129155525
 10
8415866.007422442
 20
5746081.332707283
 10
8415866.118450674
 20
5746081.287180019
 10
8415867.173165631
 20
5746083.85933405
 10
8415867.062137399
 20
5746083.904861315
 10
8415867.14560405
 20
5746084.108413072
 10
8415867.256632282
 20
5746084.062885806
 10
8415868.311347239
 20
5746086.635039839
 10
8415868.200319007
 20
5746086.680567104
 10
8415868.283785659
 20
5746086.884118861
 10
8415868.394813893
 20
5746086.838591597
 10
8415869.449528848
 20
5746089.410745627
 10
8415869.338500614
 20
5746089.456272892
 10
8415869.421967268
 20
5746089.659824649
 10
8415869.5329955
 20
5746089.614297385
 10
8415870.587710456
 20
5746092.186451418
 10
8415870.476682224
 20
5746092.231978682
 10
8415870.560148876
 20
5746092.435530441
 10
8415870.671177108
 20
5746092.390003175
 10
8415871.725892063
 20
5746094.962157205
 10
8415871.614863831
 20
5746095.00768447
 10
8415871.698330485
 20
5746095.211236228
 10
8415871.809358716
 20
5746095.165708964
 10
8415872.864073671
 20
5746097.737862994
 10
8415872.753045441
 20
5746097.783390259
 10
8415872.836512093
 20
5746097.986942016
 10
8415872.947540323
 20
5746097.941414753
 10
8415874.002255279
 20
5746100.513568784
 10
8415873.891227048
 20
5746100.559096048
 10
8415873.974693701
 20
5746100.762647806
 10
8415874.085721933
 20
5746100.717120542
 10
8415875.140436888
 20
5746103.289274572
 10
8415875.029408656
 20
5746103.334801837
 10
8415875.112875308
 20
5746103.538353595
 10
8415875.22390354
 20
5746103.49282633
 10
8415876.278618496
 20
5746106.06498036
 10
8415876.167590264
 20
5746106.110507624
 10
8415876.251056916
 20
5746106.314059383
 10
8415876.36208515
 20
5746106.268532119
 10
8415877.416800105
 20
5746108.84068615
 10
8415877.305771871
 20
5746108.886213415
 10
8415877.389238525
 20
5746109.089765174
 10
8415877.500266757
 20
5746109.044237909
 10
8415878.649830181
 20
5746111.847700754
 10
8415878.538801949
 20
5746111.89322802
 10
8415878.622268602
 20
5746112.096779777
 10
8415878.733296832
 20
5746112.051252513
 10
8415878.792102841
 20
5746112.194663883
 10
8415880.77253888
 20
5746117.024392051
 10
8415889.163920823
 20
5746113.583548602
 10
8415887.183503482
 20
5746108.753866025
  0
LWPOLYLINE
  5
3C7
330
1F
100
AcDbEntity
  8
3 - CIENKA LINIA POMOCNICZA
100
AcDbPolyline
 90
      243
 70
     0
 43
0.0
 10
8415887.240450892
 20
5746108.471020149
 10
8415890.784622103
 20
5746107.017723082
 10
8415890.830149368
 20
5746107.128751313
 10
8415890.978187009
 20
5746107.068048295
 10
8415890.932659745
 20
5746106.957020064
 10
8415893.671356123
 20
5746105.834014209
 10
8415893.716883388
 20
5746105.945042442
 10
8415893.864921029
 20
5746105.884339423
 10
8415893.819393765
 20
5746105.773311191
 10
8415894.254254341
 20
5746105.594996071
 10
8415894.299781607
 20
5746105.706024303
 10
8415894.447819248
 20
5746105.645321285
 10
8415894.402291984
 20
5746105.534293053
 10
8415897.140988361
 20
5746104.411287198
 10
8415897.186515627
 20
5746104.52231543
 10
8415897.334553267
 20
5746104.461612411
 10
8415897.334553267
 20
5746104.461612411
 10
8415897.289026004
 20
5746104.35058418
 10
8415898.190667768
 20
5746103.980864853
 10
8415898.236195031
 20
5746104.091893085
 10
8415898.384232674
 20
5746104.031190067
 10
8415898.338705408
 20
5746103.920161835
 10
8415898.398983491
 20
5746103.895444734
 10
8415898.431231971
 20
5746103.974089729
 10
8415898.542260201
 20
5746103.928562465
 10
8415898.458793551
 20
5746103.725010707
 10
8415898.347765319
 20
5746103.770537971
 10
8415897.198201895
 20
5746100.967075125
 10
8415897.309230127
 20
5746100.921547861
 10
8415897.225763474
 20
5746100.717996102
 10
8415897.114735244
 20
5746100.763523367
 10
8415896.060020283
 20
5746098.191369338
 10
8415896.171048519
 20
5746098.145842072
 10
8415896.087581867
 20
5746097.942290314
 10
8415895.976553636
 20
5746097.987817579
 10
8415894.921838678
 20
5746095.415663546
 10
8415895.032866909
 20
5746095.370136282
 10
8415894.949400257
 20
5746095.166584527
 10
8415894.838372025
 20
5746095.21211179
 10
8415893.78365707
 20
5746092.639957758
 10
8415893.894685302
 20
5746092.594430495
 10
8415893.811218648
 20
5746092.390878736
 10
8415893.700190419
 20
5746092.436406001
 10
8415892.645475462
 20
5746089.864251969
 10
8415892.756503694
 20
5746089.818724706
 10
8415892.67303704
 20
5746089.615172947
 10
8415892.562008806
 20
5746089.660700212
 10
8415891.507293855
 20
5746087.08854618
 10
8415891.618322085
 20
5746087.043018916
 10
8415891.534855433
 20
5746086.839467158
 10
8415891.423827202
 20
5746086.884994422
 10
8415890.369112245
 20
5746084.312840391
 10
8415890.480140477
 20
5746084.267313127
 10
8415890.396673825
 20
5746084.063761369
 10
8415890.285645589
 20
5746084.109288635
 10
8415889.230930638
 20
5746081.537134604
 10
8415889.34195887
 20
5746081.491607339
 10
8415889.258492217
 20
5746081.288055582
 10
8415889.147463987
 20
5746081.333582846
 10
8415888.092749028
 20
5746078.761428814
 10
8415888.203777262
 20
5746078.715901549
 10
8415888.120310608
 20
5746078.51234979
 10
8415888.00928238
 20
5746078.557877056
 10
8415886.954567421
 20
5746075.985723025
 10
8415887.065595651
 20
5746075.940195761
 10
8415886.982129
 20
5746075.736644002
 10
8415886.871100767
 20
5746075.782171269
 10
8415885.816385813
 20
5746073.210017236
 10
8415885.927414043
 20
5746073.164489972
 10
8415885.843947391
 20
5746072.960938214
 10
8415885.732919162
 20
5746073.006465478
 10
8415884.678204205
 20
5746070.434311446
 10
8415884.789232435
 20
5746070.388784183
 10
8415884.705765783
 20
5746070.185232424
 10
8415884.594737553
 20
5746070.230759689
 10
8415883.540022594
 20
5746067.658605659
 10
8415883.651050828
 20
5746067.613078394
 10
8415883.567584176
 20
5746067.409526635
 10
8415883.456555944
 20
5746067.455053901
 10
8415882.401840988
 20
5746064.882899871
 10
8415882.512869218
 20
5746064.837372606
 10
8415882.429402568
 20
5746064.633820848
 10
8415882.318374334
 20
5746064.679348112
 10
8415881.263659381
 20
5746062.10719408
 10
8415881.374687611
 20
5746062.061666815
 10
8415881.29122096
 20
5746061.858115057
 10
8415881.180192727
 20
5746061.903642322
 10
8415880.125477771
 20
5746059.331488291
 10
8415880.236506001
 20
5746059.285961027
 10
8415880.153039351
 20
5746059.082409269
 10
8415880.042011119
 20
5746059.127936534
 10
8415878.987296164
 20
5746056.555782502
 10
8415879.098324394
 20
5746056.510255239
 10
8415879.014857743
 20
5746056.30670348
 10
8415878.903829511
 20
5746056.352230746
 10
8415877.849114556
 20
5746053.780076713
 10
8415877.960142786
 20
5746053.734549449
 10
8415877.876676134
 20
5746053.530997691
 10
8415877.765647904
 20
5746053.576524955
 10
8415876.710932948
 20
5746051.004370925
 10
8415876.821961179
 20
5746050.95884366
 10
8415876.738494526
 20
5746050.755291902
 10
8415876.627466296
 20
5746050.800819167
 10
8415875.572751341
 20
5746048.228665137
 10
8415875.683779569
 20
5746048.183137872
 10
8415875.600312919
 20
5746047.979586115
 10
8415875.489284687
 20
5746048.025113378
 10
8415874.434569728
 20
5746045.452959348
 10
8415874.545597961
 20
5746045.407432082
 10
8415874.462131311
 20
5746045.203880324
 10
8415874.351103079
 20
5746045.249407589
 10
8415873.296388124
 20
5746042.677253558
 10
8415873.407416352
 20
5746042.631726294
 10
8415873.323949703
 20
5746042.428174535
 10
8415873.21292147
 20
5746042.4737018
 10
8415872.158206511
 20
5746039.901547768
 10
8415872.269234744
 20
5746039.856020504
 10
8415872.185768094
 20
5746039.652468747
 10
8415872.074739862
 20
5746039.697996012
 10
8415871.020024907
 20
5746037.125841979
 10
8415871.131053137
 20
5746037.080314716
 10
8415871.047586486
 20
5746036.876762957
 10
8415870.936558254
 20
5746036.922290222
 10
8415869.881843295
 20
5746034.350136191
 10
8415869.992871529
 20
5746034.304608927
 10
8415869.909404877
 20
5746034.101057168
 10
8415869.798376647
 20
5746034.146584434
 10
8415868.743661686
 20
5746031.574430403
 10
8415868.85468992
 20
5746031.528903137
 10
8415868.771223269
 20
5746031.32535138
 10
8415868.660195037
 20
5746031.370878645
 10
8415867.60548008
 20
5746028.798724613
 10
8415867.716508312
 20
5746028.753197349
 10
8415867.633041662
 20
5746028.549645591
 10
8415867.52201343
 20
5746028.595172855
 10
8415866.467298473
 20
5746026.023018824
 10
8415866.578326705
 20
5746025.97749156
 10
8415866.494860054
 20
5746025.773939802
 10
8415866.383831822
 20
5746025.819467067
 10
8415865.329116865
 20
5746023.247313035
 10
8415865.440145095
 20
5746023.201785771
 10
8415865.356678445
 20
5746022.998234013
 10
8415865.245650213
 20
5746023.043761279
 10
8415864.190935254
 20
5746020.471607246
 10
8415864.301963488
 20
5746020.426079982
 10
8415864.218496837
 20
5746020.222528223
 10
8415864.107468603
 20
5746020.268055489
 10
8415863.052753648
 20
5746017.695901458
 10
8415863.16378188
 20
5746017.650374193
 10
8415863.080315229
 20
5746017.446822436
 10
8415862.969286997
 20
5746017.4923497
 10
8415861.91457204
 20
5746014.920195668
 10
8415862.02560027
 20
5746014.874668403
 10
8415861.94213362
 20
5746014.671116645
 10
8415861.831105386
 20
5746014.716643911
 10
8415860.776390431
 20
5746012.144489879
 10
8415860.887418663
 20
5746012.098962616
 10
8415860.803952012
 20
5746011.895410857
 10
8415860.692923779
 20
5746011.940938124
 10
8415859.638208823
 20
5746009.368784091
 10
8415859.749237053
 20
5746009.323256827
 10
8415859.665770405
 20
5746009.119705068
 10
8415859.554742171
 20
5746009.165232333
 10
8415858.500027216
 20
5746006.593078301
 10
8415858.611055444
 20
5746006.547551037
 10
8415858.527588795
 20
5746006.343999279
 10
8415858.416560562
 20
5746006.389526542
 10
8415857.361845606
 20
5746003.817372513
 10
8415857.472873836
 20
5746003.771845249
 10
8415857.389407186
 20
5746003.56829349
 10
8415857.278378956
 20
5746003.613820755
 10
8415856.223663997
 20
5746001.041666724
 10
8415856.334692229
 20
5746000.996139461
 10
8415856.251225577
 20
5746000.792587702
 10
8415856.140197346
 20
5746000.838114967
 10
8415855.085482391
 20
5745998.265960935
 10
8415855.196510621
 20
5745998.220433669
 10
8415855.113043969
 20
5745998.016881912
 10
8415855.002015739
 20
5745998.062409178
 10
8415853.94730078
 20
5745995.490255146
 10
8415854.058329014
 20
5745995.444727882
 10
8415853.974862361
 20
5745995.241176124
 10
8415853.863834129
 20
5745995.28670339
 10
8415852.809119174
 20
5745992.714549357
 10
8415852.920147404
 20
5745992.669022093
 10
8415852.836680754
 20
5745992.465470335
 10
8415852.725652523
 20
5745992.5109976
 10
8415851.670937566
 20
5745989.938843568
 10
8415851.781965795
 20
5745989.893316304
 10
8415851.698499146
 20
5745989.689764545
 10
8415851.587470916
 20
5745989.735291809
 10
8415850.532755957
 20
5745987.16313778
 10
8415850.643784187
 20
5745987.117610515
 10
8415850.560317537
 20
5745986.914058756
 10
8415850.449289306
 20
5745986.959586022
 10
8415849.394574349
 20
5745984.387431991
 10
8415849.505602579
 20
5745984.341904727
 10
8415849.422135929
 20
5745984.138352969
 10
8415849.311107699
 20
5745984.183880233
 10
8415848.256392742
 20
5745981.611726201
 10
8415848.367420972
 20
5745981.566198936
 10
8415848.28395432
 20
5745981.362647179
 10
8415848.172926091
 20
5745981.408174443
 10
8415847.118211134
 20
5745978.836020412
 10
8415847.229239364
 20
5745978.790493149
 10
8415847.145772712
 20
5745978.58694139
 10
8415847.034744482
 20
5745978.632468655
 10
8415845.980029526
 20
5745976.060314625
 10
8415846.091057755
 20
5745976.01478736
 10
8415846.007591104
 20
5745975.811235601
 10
8415845.896562874
 20
5745975.856762867
 10
8415844.841847917
 20
5745973.284608834
 10
8415844.952876147
 20
5745973.23908157
 10
8415844.869409497
 20
5745973.035529812
 10
8415844.758381266
 20
5745973.081057075
 10
8415843.703666308
 20
5745970.508903046
 10
8415843.814694538
 20
5745970.463375781
 10
8415843.731227889
 20
5745970.259824024
 10
8415843.620199659
 20
5745970.305351288
 10
8415843.654159257
 20
5745970.388169232
 10
8415843.593881174
 20
5745970.412886333
 10
8415843.54835391
 20
5745970.301858102
 10
8415843.400316269
 20
5745970.362561122
 10
8415843.445843533
 20
5745970.473589352
 10
8415842.544201769
 20
5745970.843308679
 10
8415842.498674503
 20
5745970.732280449
 10
8415842.350636863
 20
5745970.792983468
 10
8415842.396164126
 20
5745970.904011698
 10
8415839.657467749
 20
5745972.02701755
 10
8415839.611940484
 20
5745971.915989322
 10
8415839.463902843
 20
5745971.976692341
 10
8415839.509430107
 20
5745972.08772057
 10
8415839.074569532
 20
5745972.266035688
 10
8415839.029042269
 20
5745972.155007458
 10
8415838.881004626
 20
5745972.215710477
 10
8415838.92653189
 20
5745972.326738708
 10
8415836.187835513
 20
5745973.44974456
 10
8415836.142308249
 20
5745973.338716331
 10
8415835.994270606
 20
5745973.399419349
 10
8415836.03979787
 20
5745973.510447582
 10
8415835.918524418
 20
5745973.56017591
 10
8415835.872997154
 20
5745973.44914768
 10
8415835.724959512
 20
5745973.509850698
  0
LWPOLYLINE
  5
3C8
330
1F
100
AcDbEntity
  8
3 - CIENKA LINIA POMOCNICZA
100
AcDbPolyline
 90
        2
 70
     0
 43
0.0
 10
8415887.183466091
 20
5746108.753774839
 10
8415887.137940698
 20
5746108.64275151
  0
LWPOLYLINE
  5
3C9
330
1F
100
AcDbEntity
  8
3 - CIENKA LINIA POMOCNICZA
100
AcDbPolyline
 90
        3
 70
     0
 43
0.0
 10
8415887.240450956
 20
5746108.471020309
 10
8415887.28597822
 20
5746108.58204854
 10
8415887.137940579
 20
5746108.642751559
  0
LWPOLYLINE
  5
3CA
330
1F
100
AcDbEntity
  8
3 - CIENKA LINIA POMOCNICZA
100
AcDbPolyline
 90
        8
 70
     0
 43
0.0
 10
8415831.70143334
 20
5745975.289399346
 10
8415831.655906075
 20
5745975.178371118
 10
8415831.803943719
 20
5745975.117668099
 10
8415831.849470981
 20
5745975.228696329
 10
8415835.770486776
 20
5745973.620878928
 10
8415835.724959512
 20
5745973.509850698
 10
8415835.872997154
 20
5745973.44914768
 10
8415835.918524418
 20
5745973.56017591
  0
LWPOLYLINE
  5
3CB
330
1F
100
AcDbEntity
  8
3 - CIENKA LINIA POMOCNICZA
100
AcDbPolyline
 90
        7
 70
     0
 43
0.0
 10
8415843.521053181
 20
5745970.710640015
 10
8415824.285647063
 20
5745978.597889758
 10
8415880.911461906
 20
5746116.69238789
 10
8415888.831878739
 20
5746113.444611125
 10
8415886.733688129
 20
5746108.327712573
 10
8415898.048536442
 20
5746103.68788397
 10
8415843.521050657
 20
5745970.710649991
  0
LWPOLYLINE
  5
3CC
330
1F
100
AcDbEntity
  8
3 - CIENKA LINIA POMOCNICZA
100
AcDbPolyline
 90
        5
 70
     0
 43
0.0
 10
8415898.721710192
 20
5746104.022610024
 10
8415843.793028466
 20
5745970.066957661
 10
8415823.641402006
 20
5745978.330157133
 10
8415878.570104544
 20
5746112.285694672
 10
8415878.792102841
 20
5746112.194663883
  0
LWPOLYLINE
  5
3CD
330
1F
100
AcDbEntity
  8
3 - CIENKA LINIA POMOCNICZA
100
AcDbPolyline
 90
        2
 70
     0
 43
0.0
 10
8415898.72167284
 20
5746104.022518937
 10
8415887.183466091
 20
5746108.753774839
  0
DIMENSION
  5
3CE
102
{ACAD_XDICTIONARY
360
3CF
102
}
330
1F
100
AcDbEntity
  8
OPISY NIEBIESKIE
100
AcDbDimension
  2
*D3
 10
8415915.089526226
 20
5746289.20555286
 30
0.0
 11
8415910.901130137
 21
5746283.931765078
 31
0.0
 70
    33
 71
     5
 42
12.77962784883252
 51
292.287051988224
  3
ISO-25
100
AcDbAlignedDimension
 13
8415910.75743876
 23
5746277.18247204
 33
0.0
 14
8415915.13711643
 24
5746289.188191988
 34
0.0
1001
AcadAnnotative
1000
AnnotativeData
1002
{
1070
     1
1070
     0
1002
}
  0
LWPOLYLINE
  5
3D3
330
1F
100
AcDbEntity
  8
3 - CIENKA LINIA POMOCNICZA
100
AcDbPolyline
 90
      223
 70
     0
 43
0.0
 10
8415949.00668424
 20
5746261.363761005
 10
8415948.961156974
 20
5746261.252732777
 10
8415948.876896948
 20
5746261.287283706
 10
8415948.922424215
 20
5746261.398311936
 10
8415948.774386574
 20
5746261.459014958
 10
8415948.728859307
 20
5746261.347986728
 10
8415945.990162949
 20
5746262.470992632
 10
8415946.035690215
 20
5746262.58202086
 10
8415945.887652574
 20
5746262.642723883
 10
8415945.842125307
 20
5746262.531695653
 10
8415945.370255327
 20
5746262.725186535
 10
8415945.415782594
 20
5746262.836214765
 10
8415945.267744953
 20
5746262.896917786
 10
8415945.222217686
 20
5746262.785889556
 10
8415942.483521329
 20
5746263.90889546
 10
8415942.529048594
 20
5746264.019923688
 10
8415942.381010953
 20
5746264.080626712
 10
8415942.335483688
 20
5746263.969598482
 10
8415941.433841931
 20
5746264.339317823
 10
8415941.479369196
 20
5746264.450346052
 10
8415941.331331556
 20
5746264.511049075
 10
8415941.285804288
 20
5746264.400020845
 10
8415941.21594781
 20
5746264.428665582
 10
8415941.249907412
 20
5746264.511483525
 10
8415941.138879182
 20
5746264.557010792
 10
8415941.055412528
 20
5746264.353459036
 10
8415941.166440756
 20
5746264.307931769
 10
8415940.111725754
 20
5746261.735777756
 10
8415940.000697524
 20
5746261.781305022
 10
8415939.917230868
 20
5746261.577753266
 10
8415940.028259099
 20
5746261.532225999
 10
8415938.973544095
 20
5746258.960071989
 10
8415938.862515865
 20
5746259.005599255
 10
8415938.779049211
 20
5746258.802047498
 10
8415938.890077441
 20
5746258.756520232
 10
8415937.835362438
 20
5746256.184366219
 10
8415937.724334206
 20
5746256.229893486
 10
8415937.640867552
 20
5746256.02634173
 10
8415937.751895782
 20
5746255.980814463
 10
8415936.697180779
 20
5746253.408660451
 10
8415936.586152549
 20
5746253.454187717
 10
8415936.502685893
 20
5746253.250635962
 10
8415936.613714125
 20
5746253.205108695
 10
8415935.558999121
 20
5746250.632954683
 10
8415935.447970889
 20
5746250.678481949
 10
8415935.364504234
 20
5746250.474930191
 10
8415935.475532467
 20
5746250.429402926
 10
8415934.420817462
 20
5746247.857248914
 10
8415934.309789234
 20
5746247.902776181
 10
8415934.226322576
 20
5746247.699224425
 10
8415934.337350808
 20
5746247.653697158
 10
8415933.282635805
 20
5746245.081543146
 10
8415933.171607575
 20
5746245.127070412
 10
8415933.088140919
 20
5746244.923518656
 10
8415933.199169149
 20
5746244.877991389
 10
8415932.144454146
 20
5746242.305837378
 10
8415932.033425916
 20
5746242.351364644
 10
8415931.949959261
 20
5746242.147812887
 10
8415932.060987492
 20
5746242.102285621
 10
8415931.006272487
 20
5746239.530131609
 10
8415930.895244256
 20
5746239.575658876
 10
8415930.811777604
 20
5746239.372107119
 10
8415930.922805832
 20
5746239.326579853
 10
8415929.868090831
 20
5746236.75442584
 10
8415929.757062599
 20
5746236.799953106
 10
8415929.673595945
 20
5746236.596401351
 10
8415929.784624175
 20
5746236.550874084
 10
8415928.729909172
 20
5746233.978720073
 10
8415928.618880942
 20
5746234.024247339
 10
8415928.535414286
 20
5746233.820695582
 10
8415928.646442518
 20
5746233.775168316
 10
8415927.591727514
 20
5746231.203014303
 10
8415927.480699282
 20
5746231.24854157
 10
8415927.397232627
 20
5746231.044989814
 10
8415927.508260857
 20
5746230.999462548
 10
8415926.453545855
 20
5746228.427308535
 10
8415926.342517623
 20
5746228.472835801
 10
8415926.259050969
 20
5746228.269284046
 10
8415926.370079201
 20
5746228.223756779
 10
8415925.315364198
 20
5746225.651602767
 10
8415925.204335964
 20
5746225.697130033
 10
8415925.120869312
 20
5746225.493578276
 10
8415925.231897542
 20
5746225.44805101
 10
8415924.177182539
 20
5746222.875896998
 10
8415924.066154309
 20
5746222.921424265
 10
8415923.982687653
 20
5746222.717872509
 10
8415924.093715885
 20
5746222.672345242
 10
8415923.03900088
 20
5746220.100191229
 10
8415922.927972649
 20
5746220.145718496
 10
8415922.844505995
 20
5746219.94216674
 10
8415922.955534226
 20
5746219.896639473
 10
8415921.900819222
 20
5746217.324485463
 10
8415921.789790992
 20
5746217.370012728
 10
8415921.706324336
 20
5746217.166460971
 10
8415921.817352566
 20
5746217.120933705
 10
8415920.762637563
 20
5746214.548779694
 10
8415920.651609333
 20
5746214.594306959
 10
8415920.568142679
 20
5746214.390755203
 10
8415920.679170907
 20
5746214.345227937
 10
8415919.624455906
 20
5746211.773073924
 10
8415919.513427676
 20
5746211.818601191
 10
8415919.42996102
 20
5746211.615049435
 10
8415919.54098925
 20
5746211.569522168
 10
8415918.486274248
 20
5746208.997368158
 10
8415918.375246016
 20
5746209.042895424
 10
8415918.291779362
 20
5746208.839343665
 10
8415918.402807593
 20
5746208.793816399
 10
8415917.348092589
 20
5746206.221662388
 10
8415917.237064357
 20
5746206.267189655
 10
8415917.153597703
 20
5746206.063637898
 10
8415917.264625933
 20
5746206.018110632
 10
8415916.20991093
 20
5746203.44595662
 10
8415916.0988827
 20
5746203.491483886
 10
8415916.015416044
 20
5746203.287932129
 10
8415916.126444276
 20
5746203.242404862
 10
8415915.071729273
 20
5746200.670250852
 10
8415914.960701041
 20
5746200.715778118
 10
8415914.877234387
 20
5746200.51222636
 10
8415914.988262619
 20
5746200.466699094
 10
8415913.933547614
 20
5746197.894545083
 10
8415913.822519385
 20
5746197.94007235
 10
8415913.739052728
 20
5746197.736520592
 10
8415913.85008096
 20
5746197.690993326
 10
8415912.795365956
 20
5746195.118839314
 10
8415912.684337726
 20
5746195.16436658
 10
8415912.60087107
 20
5746194.960814825
 10
8415912.7118993
 20
5746194.915287558
 10
8415911.657184297
 20
5746192.343133547
 10
8415911.546156067
 20
5746192.388660813
 10
8415911.462689413
 20
5746192.185109056
 10
8415911.573717643
 20
5746192.13958179
 10
8415910.519002638
 20
5746189.567427777
 10
8415910.407974408
 20
5746189.612955044
 10
8415910.324507756
 20
5746189.409403288
 10
8415910.435535984
 20
5746189.363876021
 10
8415909.380820982
 20
5746186.791722009
 10
8415909.26979275
 20
5746186.837249275
 10
8415909.186326096
 20
5746186.63369752
 10
8415909.297354327
 20
5746186.588170253
 10
8415908.242639323
 20
5746184.016016241
 10
8415908.131611093
 20
5746184.061543507
 10
8415908.048144437
 20
5746183.85799175
 10
8415908.159172669
 20
5746183.812464484
 10
8415907.104457666
 20
5746181.240310472
 10
8415906.993429434
 20
5746181.285837739
 10
8415906.909962778
 20
5746181.082285983
 10
8415907.02099101
 20
5746181.036758716
 10
8415905.966276007
 20
5746178.464604704
 10
8415905.855247777
 20
5746178.51013197
 10
8415905.771781121
 20
5746178.306580214
 10
8415905.882809351
 20
5746178.261052947
 10
8415904.828094349
 20
5746175.688898936
 10
8415904.717066116
 20
5746175.734426202
 10
8415904.633599463
 20
5746175.530874445
 10
8415904.744627694
 20
5746175.485347179
 10
8415903.68991269
 20
5746172.913193167
 10
8415903.57888446
 20
5746172.958720434
 10
8415903.495417804
 20
5746172.755168677
 10
8415903.606446036
 20
5746172.709641411
 10
8415902.551731031
 20
5746170.137487398
 10
8415902.440702801
 20
5746170.183014664
 10
8415902.357236147
 20
5746169.979462909
 10
8415902.468264377
 20
5746169.933935642
 10
8415901.413549374
 20
5746167.361781631
 10
8415901.302521143
 20
5746167.407308897
 10
8415901.219054488
 20
5746167.20375714
 10
8415901.330082718
 20
5746167.158229874
 10
8415900.275367715
 20
5746164.586075861
 10
8415900.164339484
 20
5746164.631603128
 10
8415900.08087283
 20
5746164.428051372
 10
8415900.191901059
 20
5746164.382524105
 10
8415899.137186057
 20
5746161.810370093
 10
8415899.026157827
 20
5746161.855897359
 10
8415898.942691171
 20
5746161.652345604
 10
8415899.053719401
 20
5746161.606818337
 10
8415897.9990044
 20
5746159.034664325
 10
8415897.887976168
 20
5746159.080191591
 10
8415897.804509514
 20
5746158.876639834
 10
8415897.915537744
 20
5746158.831112568
 10
8415896.860822741
 20
5746156.258958556
 10
8415896.749794509
 20
5746156.304485823
 10
8415896.666327855
 20
5746156.100934067
 10
8415896.777356087
 20
5746156.0554068
 10
8415895.722641081
 20
5746153.483252787
 10
8415895.611612853
 20
5746153.528780054
 10
8415895.528146196
 20
5746153.325228298
 10
8415895.639174427
 20
5746153.279701031
 10
8415894.584459424
 20
5746150.707547021
 10
8415894.473431192
 20
5746150.753074287
 10
8415894.38996454
 20
5746150.549522529
 10
8415894.50099277
 20
5746150.503995263
 10
8415893.446277765
 20
5746147.93184125
 10
8415893.335249537
 20
5746147.977368517
 10
8415893.251782879
 20
5746147.773816761
 10
8415893.362811111
 20
5746147.728289495
 10
8415892.308096108
 20
5746145.156135482
 10
8415892.197067877
 20
5746145.201662749
 10
8415892.113601222
 20
5746144.998110993
 10
8415892.224629452
 20
5746144.952583726
 10
8415891.16991445
 20
5746142.380429715
 10
8415891.058886218
 20
5746142.425956981
 10
8415890.975419564
 20
5746142.222405223
 10
8415891.086447794
 20
5746142.176877957
 10
8415890.031732789
 20
5746139.604723946
 10
8415889.920704561
 20
5746139.650251213
 10
8415889.837237907
 20
5746139.446699457
 10
8415889.948266135
 20
5746139.40117219
 10
8415888.893551134
 20
5746136.829018178
 10
8415888.782522902
 20
5746136.874545444
 10
8415888.699056248
 20
5746136.670993687
 10
8415888.810084478
 20
5746136.62546642
 10
8415887.755369475
 20
5746134.05331241
 10
8415887.644341244
 20
5746134.098839676
 10
8415887.560874589
 20
5746133.895287918
 10
8415887.671902821
 20
5746133.849760652
 10
8415886.522339345
 20
5746131.046297827
 10
8415886.411311115
 20
5746131.091825093
 10
8415886.327844459
 20
5746130.888273337
 10
8415886.438872689
 20
5746130.842746071
 10
8415886.380066677
 20
5746130.699334702
 10
8415884.832139582
 20
5746126.924374761
 10
8415892.548062416
 20
5746123.760397705
 10
8415894.095970815
 20
5746127.535312054
  0
LWPOLYLINE
  5
3D4
330
1F
100
AcDbEntity
  8
3 - CIENKA LINIA POMOCNICZA
100
AcDbPolyline
 90
      243
 70
     0
 43
0.0
 10
8415894.335098219
 20
5746127.696752082
 10
8415898.55469483
 20
5746125.966506416
 10
8415898.509167565
 20
5746125.855478186
 10
8415898.657205207
 20
5746125.794775164
 10
8415898.702732473
 20
5746125.905803394
 10
8415901.441428831
 20
5746124.78279749
 10
8415901.395901565
 20
5746124.671769262
 10
8415901.543939206
 20
5746124.611066238
 10
8415901.589466473
 20
5746124.72209447
 10
8415902.024327044
 20
5746124.543779343
 10
8415901.978799777
 20
5746124.432751113
 10
8415902.126837417
 20
5746124.372048091
 10
8415902.172364685
 20
5746124.483076321
 10
8415904.911061042
 20
5746123.360070419
 10
8415904.865533775
 20
5746123.249042189
 10
8415905.013571418
 20
5746123.188339167
 10
8415905.013571418
 20
5746123.188339167
 10
8415905.059098683
 20
5746123.299367396
 10
8415905.96074044
 20
5746122.929648055
 10
8415905.915213173
 20
5746122.818619824
 10
8415906.063250815
 20
5746122.757916802
 10
8415906.108778083
 20
5746122.868945032
 10
8415906.169056164
 20
5746122.844227929
 10
8415906.136807684
 20
5746122.765582933
 10
8415906.247835913
 20
5746122.720055667
 10
8415906.331302569
 20
5746122.923607423
 10
8415906.220274338
 20
5746122.969134689
 10
8415907.369837812
 20
5746125.772597515
 10
8415907.480866042
 20
5746125.727070249
 10
8415907.564332698
 20
5746125.930622006
 10
8415907.453304468
 20
5746125.976149272
 10
8415908.508019466
 20
5746128.548303286
 10
8415908.619047701
 20
5746128.502776017
 10
8415908.702514355
 20
5746128.706327773
 10
8415908.591486127
 20
5746128.75185504
 10
8415909.64620113
 20
5746131.324009053
 10
8415909.757229361
 20
5746131.278481787
 10
8415909.840696015
 20
5746131.482033542
 10
8415909.729667783
 20
5746131.52756081
 10
8415910.78438279
 20
5746134.09971482
 10
8415910.895411018
 20
5746134.054187554
 10
8415910.978877672
 20
5746134.257739311
 10
8415910.867849444
 20
5746134.303266577
 10
8415911.922564447
 20
5746136.87542059
 10
8415912.033592675
 20
5746136.829893323
 10
8415912.117059331
 20
5746137.033445079
 10
8415912.006031097
 20
5746137.078972346
 10
8415913.060746104
 20
5746139.651126358
 10
8415913.171774334
 20
5746139.605599092
 10
8415913.25524099
 20
5746139.809150847
 10
8415913.14421276
 20
5746139.854678114
 10
8415914.198927763
 20
5746142.426832125
 10
8415914.309955992
 20
5746142.38130486
 10
8415914.393422648
 20
5746142.584856617
 10
8415914.282394414
 20
5746142.630383884
 10
8415915.337109421
 20
5746145.202537895
 10
8415915.448137649
 20
5746145.157010628
 10
8415915.531604305
 20
5746145.360562384
 10
8415915.420576077
 20
5746145.406089651
 10
8415916.47529108
 20
5746147.978243662
 10
8415916.586319308
 20
5746147.932716396
 10
8415916.669785962
 20
5746148.136268153
 10
8415916.558757734
 20
5746148.18179542
 10
8415917.613472737
 20
5746150.75394943
 10
8415917.724500967
 20
5746150.708422164
 10
8415917.807967622
 20
5746150.911973922
 10
8415917.69693939
 20
5746150.957501189
 10
8415918.751654396
 20
5746153.529655199
 10
8415918.862682625
 20
5746153.484127932
 10
8415918.946149281
 20
5746153.68767969
 10
8415918.83512105
 20
5746153.733206956
 10
8415919.889836054
 20
5746156.305360968
 10
8415920.000864284
 20
5746156.259833703
 10
8415920.08433094
 20
5746156.463385458
 10
8415919.97330271
 20
5746156.508912725
 10
8415921.028017709
 20
5746159.081066736
 10
8415921.139045943
 20
5746159.035539469
 10
8415921.222512597
 20
5746159.239091226
 10
8415921.111484367
 20
5746159.284618492
 10
8415922.166199372
 20
5746161.856772505
 10
8415922.277227599
 20
5746161.811245238
 10
8415922.360694255
 20
5746162.014796994
 10
8415922.249666021
 20
5746162.060324262
 10
8415923.304381028
 20
5746164.632478273
 10
8415923.41540926
 20
5746164.586951007
 10
8415923.498875914
 20
5746164.790502763
 10
8415923.387847684
 20
5746164.836030029
 10
8415924.442562687
 20
5746167.408184041
 10
8415924.553590917
 20
5746167.362656775
 10
8415924.637057573
 20
5746167.566208533
 10
8415924.526029341
 20
5746167.611735798
 10
8415925.580744344
 20
5746170.18388981
 10
8415925.691772574
 20
5746170.138362543
 10
8415925.775239228
 20
5746170.341914299
 10
8415925.664211002
 20
5746170.387441566
 10
8415926.718926003
 20
5746172.959595578
 10
8415926.829954234
 20
5746172.914068312
 10
8415926.913420888
 20
5746173.117620068
 10
8415926.802392657
 20
5746173.163147335
 10
8415927.857107661
 20
5746175.735301346
 10
8415927.968135891
 20
5746175.68977408
 10
8415928.051602547
 20
5746175.893325837
 10
8415927.940574317
 20
5746175.938853103
 10
8415928.99528932
 20
5746178.511007115
 10
8415929.10631755
 20
5746178.465479848
 10
8415929.189784204
 20
5746178.669031605
 10
8415929.078755974
 20
5746178.714558872
 10
8415930.133470975
 20
5746181.286712885
 10
8415930.244499209
 20
5746181.241185618
 10
8415930.327965863
 20
5746181.444737374
 10
8415930.216937633
 20
5746181.49026464
 10
8415931.271652636
 20
5746184.062418651
 10
8415931.382680867
 20
5746184.016891385
 10
8415931.466147522
 20
5746184.220443142
 10
8415931.355119292
 20
5746184.265970408
 10
8415932.409834292
 20
5746186.838124421
 10
8415932.520862524
 20
5746186.792597154
 10
8415932.60432918
 20
5746186.99614891
 10
8415932.493300951
 20
5746187.041676177
 10
8415933.548015953
 20
5746189.613830189
 10
8415933.659044183
 20
5746189.568302923
 10
8415933.742510837
 20
5746189.771854679
 10
8415933.631482609
 20
5746189.817381945
 10
8415934.686197608
 20
5746192.389535958
 10
8415934.79722584
 20
5746192.344008691
 10
8415934.880692496
 20
5746192.547560448
 10
8415934.769664266
 20
5746192.593087714
 10
8415935.824379268
 20
5746195.165241726
 10
8415935.9354075
 20
5746195.119714459
 10
8415936.018874154
 20
5746195.323266215
 10
8415935.907845925
 20
5746195.368793482
 10
8415936.962560929
 20
5746197.940947495
 10
8415937.073589159
 20
5746197.895420229
 10
8415937.157055811
 20
5746198.098971984
 10
8415937.046027583
 20
5746198.144499251
 10
8415938.100742586
 20
5746200.716653262
 10
8415938.211770816
 20
5746200.671125996
 10
8415938.29523747
 20
5746200.874677753
 10
8415938.18420924
 20
5746200.920205019
 10
8415939.238924245
 20
5746203.492359032
 10
8415939.349952473
 20
5746203.446831765
 10
8415939.433419129
 20
5746203.650383521
 10
8415939.322390899
 20
5746203.695910788
 10
8415940.377105901
 20
5746206.268064801
 10
8415940.488134133
 20
5746206.222537534
 10
8415940.571600788
 20
5746206.426089289
 10
8415940.460572555
 20
5746206.471616557
 10
8415941.515287562
 20
5746209.043770568
 10
8415941.626315792
 20
5746208.998243302
 10
8415941.709782446
 20
5746209.201795059
 10
8415941.598754216
 20
5746209.247322325
 10
8415942.653469221
 20
5746211.819476336
 10
8415942.764497447
 20
5746211.773949069
 10
8415942.847964103
 20
5746211.977500826
 10
8415942.736935873
 20
5746212.023028092
 10
8415943.791650876
 20
5746214.595182104
 10
8415943.902679108
 20
5746214.549654838
 10
8415943.986145761
 20
5746214.753206595
 10
8415943.87511753
 20
5746214.798733862
 10
8415944.929832535
 20
5746217.370887872
 10
8415945.040860766
 20
5746217.325360606
 10
8415945.124327421
 20
5746217.528912364
 10
8415945.013299189
 20
5746217.57443963
 10
8415946.068014193
 20
5746220.146593641
 10
8415946.179042423
 20
5746220.101066374
 10
8415946.262509077
 20
5746220.304618132
 10
8415946.151480847
 20
5746220.350145399
 10
8415947.206195852
 20
5746222.92229941
 10
8415947.317224082
 20
5746222.876772144
 10
8415947.400690736
 20
5746223.0803239
 10
8415947.289662508
 20
5746223.125851166
 10
8415948.344377509
 20
5746225.698005178
 10
8415948.455405739
 20
5746225.652477911
 10
8415948.538872395
 20
5746225.856029668
 10
8415948.427844163
 20
5746225.901556934
 10
8415949.482559168
 20
5746228.473710947
 10
8415949.593587399
 20
5746228.42818368
 10
8415949.677054053
 20
5746228.631735436
 10
8415949.566025823
 20
5746228.677262703
 10
8415950.620740826
 20
5746231.249416716
 10
8415950.731769058
 20
5746231.203889449
 10
8415950.815235712
 20
5746231.407441205
 10
8415950.70420748
 20
5746231.452968472
 10
8415951.758922485
 20
5746234.025122483
 10
8415951.869950715
 20
5746233.979595217
 10
8415951.953417371
 20
5746234.183146974
 10
8415951.842389141
 20
5746234.22867424
 10
8415952.897104144
 20
5746236.800828252
 10
8415953.008132373
 20
5746236.755300985
 10
8415953.091599028
 20
5746236.958852741
 10
8415952.9805708
 20
5746237.004380008
 10
8415954.035285801
 20
5746239.57653402
 10
8415954.146314032
 20
5746239.531006755
 10
8415954.229780686
 20
5746239.734558511
 10
8415954.118752457
 20
5746239.780085777
 10
8415955.173467459
 20
5746242.352239788
 10
8415955.284495689
 20
5746242.306712522
 10
8415955.367962345
 20
5746242.510264279
 10
8415955.256934115
 20
5746242.555791545
 10
8415956.311649118
 20
5746245.127945557
 10
8415956.422677348
 20
5746245.08241829
 10
8415956.506144002
 20
5746245.285970047
 10
8415956.395115772
 20
5746245.331497314
 10
8415957.449830777
 20
5746247.903651326
 10
8415957.560859006
 20
5746247.85812406
 10
8415957.64432566
 20
5746248.061675816
 10
8415957.533297431
 20
5746248.107203082
 10
8415958.588012435
 20
5746250.679357093
 10
8415958.699040665
 20
5746250.633829827
 10
8415958.782507319
 20
5746250.837381585
 10
8415958.671479089
 20
5746250.882908851
 10
8415959.726194094
 20
5746253.455062863
 10
8415959.837222322
 20
5746253.409535596
 10
8415959.920688978
 20
5746253.613087352
 10
8415959.809660748
 20
5746253.658614619
 10
8415960.864375751
 20
5746256.230768631
 10
8415960.975403981
 20
5746256.185241365
 10
8415961.058870637
 20
5746256.388793121
 10
8415960.947842407
 20
5746256.434320387
 10
8415960.913882804
 20
5746256.351502445
 10
8415960.853604721
 20
5746256.376219548
 10
8415960.899131986
 20
5746256.487247778
 10
8415960.751094347
 20
5746256.5479508
 10
8415960.705567082
 20
5746256.436922569
 10
8415959.803925323
 20
5746256.806641912
 10
8415959.849452589
 20
5746256.917670142
 10
8415959.701414948
 20
5746256.978373164
 10
8415959.655887682
 20
5746256.867344934
 10
8415956.917191323
 20
5746257.990350836
 10
8415956.96271859
 20
5746258.101379067
 10
8415956.814680949
 20
5746258.162082088
 10
8415956.769153682
 20
5746258.051053859
 10
8415956.334293113
 20
5746258.229368985
 10
8415956.379820379
 20
5746258.340397214
 10
8415956.231782738
 20
5746258.401100237
 10
8415956.186255472
 20
5746258.290072007
 10
8415953.447559113
 20
5746259.413077909
 10
8415953.49308638
 20
5746259.52410614
 10
8415953.345048739
 20
5746259.584809162
 10
8415953.299521472
 20
5746259.473780932
 10
8415953.178248022
 20
5746259.523509263
 10
8415953.223775288
 20
5746259.634537493
 10
8415953.075737647
 20
5746259.695240515
  0
LWPOLYLINE
  5
3D5
330
1F
100
AcDbEntity
  8
3 - CIENKA LINIA POMOCNICZA
100
AcDbPolyline
 90
        2
 70
     0
 43
0.0
 10
8415894.096008207
 20
5746127.535403242
 10
8415894.141533366
 20
5746127.646426668
  0
LWPOLYLINE
  5
3D6
330
1F
100
AcDbEntity
  8
3 - CIENKA LINIA POMOCNICZA
100
AcDbPolyline
 90
        3
 70
     0
 43
0.0
 10
8415894.335098153
 20
5746127.696751926
 10
8415894.289570886
 20
5746127.585723694
 10
8415894.141533247
 20
5746127.646426717
  0
LWPOLYLINE
  5
3D7
330
1F
100
AcDbEntity
  8
3 - CIENKA LINIA POMOCNICZA
100
AcDbPolyline
 90
        8
 70
     0
 43
0.0
 10
8415948.961156974
 20
5746261.252732777
 10
8415949.00668424
 20
5746261.363761004
 10
8415949.154721882
 20
5746261.303057983
 10
8415949.109194617
 20
5746261.192029756
 10
8415953.030210381
 20
5746259.584212285
 10
8415953.075737647
 20
5746259.695240515
 10
8415953.223775288
 20
5746259.634537493
 10
8415953.178248022
 20
5746259.523509263
  0
LWPOLYLINE
  5
3D8
330
1F
100
AcDbEntity
  8
3 - CIENKA LINIA POMOCNICZA
100
AcDbPolyline
 90
        7
 70
     0
 43
0.0
 10
8415960.592702296
 20
5746256.215312444
 10
8415941.357473549
 20
5746264.102994741
 10
8415885.164155435
 20
5746127.063269845
 10
8415892.409150471
 20
5746124.092450476
 10
8415894.074832145
 20
5746128.154580796
 10
8415906.065215136
 20
5746123.238070089
 10
8415960.592693496
 20
5746256.215307109
  0
LWPOLYLINE
  5
3D9
330
1F
100
AcDbEntity
  8
3 - CIENKA LINIA POMOCNICZA
100
AcDbPolyline
 90
        5
 70
     0
 43
0.0
 10
8415906.309599177
 20
5746122.527098309
 10
8415961.238283315
 20
5746256.482749686
 10
8415941.086657003
 20
5746264.745949522
 10
8415886.158068301
 20
5746130.790365305
 10
8415886.380066677
 20
5746130.699334702
  0
LWPOLYLINE
  5
3DA
330
1F
100
AcDbEntity
  8
3 - CIENKA LINIA POMOCNICZA
100
AcDbPolyline
 90
        2
 70
     0
 43
0.0
 10
8415906.309636529
 20
5746122.527189397
 10
8415894.096008207
 20
5746127.535403242
  0
LWPOLYLINE
  5
3DB
330
1F
100
AcDbEntity
  8
3 - CIENKA LINIA POMOCNICZA
100
AcDbPolyline
 90
      223
 70
     0
 43
0.0
 10
8415870.7688931
 20
5746293.445262948
 10
8415870.723365834
 20
5746293.334234718
 10
8415870.639105808
 20
5746293.368785649
 10
8415870.684633073
 20
5746293.479813878
 10
8415870.536595434
 20
5746293.5405169
 10
8415870.491068165
 20
5746293.42948867
 10
8415867.752371807
 20
5746294.552494572
 10
8415867.797899075
 20
5746294.663522802
 10
8415867.649861432
 20
5746294.724225824
 10
8415867.604334168
 20
5746294.613197595
 10
8415867.132464187
 20
5746294.806688476
 10
8415867.177991454
 20
5746294.917716706
 10
8415867.029953812
 20
5746294.978419729
 10
8415866.984426548
 20
5746294.867391498
 10
8415864.245730187
 20
5746295.990397401
 10
8415864.291257454
 20
5746296.101425631
 10
8415864.143219815
 20
5746296.162128653
 10
8415864.097692546
 20
5746296.051100423
 10
8415863.196050789
 20
5746296.420819764
 10
8415863.241578056
 20
5746296.531847995
 10
8415863.093540416
 20
5746296.592551017
 10
8415863.04801315
 20
5746296.481522787
 10
8415862.97815667
 20
5746296.510167524
 10
8415863.012116272
 20
5746296.592985467
 10
8415862.90108804
 20
5746296.638512733
 10
8415862.817621388
 20
5746296.434960977
 10
8415862.928649618
 20
5746296.389433711
 10
8415861.873934613
 20
5746293.817279698
 10
8415861.762906384
 20
5746293.862806965
 10
8415861.679439727
 20
5746293.659255209
 10
8415861.790467959
 20
5746293.613727942
 10
8415860.735752955
 20
5746291.04157393
 10
8415860.624724725
 20
5746291.087101196
 10
8415860.541258071
 20
5746290.883549439
 10
8415860.652286301
 20
5746290.838022173
 10
8415859.597571298
 20
5746288.265868161
 10
8415859.486543068
 20
5746288.311395428
 10
8415859.403076412
 20
5746288.107843672
 10
8415859.514104642
 20
5746288.062316406
 10
8415858.459389639
 20
5746285.490162393
 10
8415858.348361409
 20
5746285.535689659
 10
8415858.264894753
 20
5746285.332137903
 10
8415858.375922983
 20
5746285.286610636
 10
8415857.321207981
 20
5746282.714456625
 10
8415857.210179749
 20
5746282.759983891
 10
8415857.126713095
 20
5746282.556432134
 10
8415857.237741326
 20
5746282.510904868
 10
8415856.183026324
 20
5746279.938750857
 10
8415856.07199809
 20
5746279.984278124
 10
8415855.988531436
 20
5746279.780726366
 10
8415856.099559668
 20
5746279.7351991
 10
8415855.044844665
 20
5746277.163045087
 10
8415854.933816433
 20
5746277.208572354
 10
8415854.850349779
 20
5746277.005020598
 10
8415854.961378009
 20
5746276.959493331
 10
8415853.906663006
 20
5746274.387339321
 10
8415853.795634776
 20
5746274.432866587
 10
8415853.71216812
 20
5746274.229314829
 10
8415853.823196352
 20
5746274.183787562
 10
8415852.768481348
 20
5746271.611633551
 10
8415852.657453116
 20
5746271.657160817
 10
8415852.573986464
 20
5746271.453609061
 10
8415852.685014694
 20
5746271.408081795
 10
8415851.630299689
 20
5746268.835927783
 10
8415851.519271459
 20
5746268.881455049
 10
8415851.435804803
 20
5746268.677903292
 10
8415851.546833035
 20
5746268.632376027
 10
8415850.492118032
 20
5746266.060222015
 10
8415850.381089802
 20
5746266.105749281
 10
8415850.297623146
 20
5746265.902197523
 10
8415850.408651376
 20
5746265.856670257
 10
8415849.353936375
 20
5746263.284516246
 10
8415849.242908143
 20
5746263.330043513
 10
8415849.159441489
 20
5746263.126491757
 10
8415849.270469717
 20
5746263.080964491
 10
8415848.215754714
 20
5746260.508810477
 10
8415848.104726483
 20
5746260.554337744
 10
8415848.021259829
 20
5746260.350785987
 10
8415848.132288061
 20
5746260.305258721
 10
8415847.077573058
 20
5746257.73310471
 10
8415846.966544826
 20
5746257.778631976
 10
8415846.88307817
 20
5746257.575080219
 10
8415846.9941064
 20
5746257.529552953
 10
8415845.939391399
 20
5746254.95739894
 10
8415845.828363167
 20
5746255.002926207
 10
8415845.744896511
 20
5746254.799374451
 10
8415845.855924745
 20
5746254.753847185
 10
8415844.80120974
 20
5746252.181693172
 10
8415844.69018151
 20
5746252.227220439
 10
8415844.606714854
 20
5746252.023668683
 10
8415844.717743086
 20
5746251.978141416
 10
8415843.663028082
 20
5746249.405987404
 10
8415843.551999852
 20
5746249.45151467
 10
8415843.468533196
 20
5746249.247962913
 10
8415843.579561427
 20
5746249.202435647
 10
8415842.524846423
 20
5746246.630281635
 10
8415842.413818191
 20
5746246.675808902
 10
8415842.330351539
 20
5746246.472257146
 10
8415842.441379769
 20
5746246.42672988
 10
8415841.386664764
 20
5746243.854575867
 10
8415841.275636534
 20
5746243.900103134
 10
8415841.192169878
 20
5746243.696551377
 10
8415841.30319811
 20
5746243.65102411
 10
8415840.248483107
 20
5746241.078870099
 10
8415840.137454877
 20
5746241.124397365
 10
8415840.053988222
 20
5746240.920845608
 10
8415840.165016453
 20
5746240.875318342
 10
8415839.110301449
 20
5746238.30316433
 10
8415838.999273219
 20
5746238.348691597
 10
8415838.915806563
 20
5746238.14513984
 10
8415839.026834794
 20
5746238.099612574
 10
8415837.97211979
 20
5746235.527458561
 10
8415837.86109156
 20
5746235.572985828
 10
8415837.777624904
 20
5746235.369434072
 10
8415837.888653138
 20
5746235.323906805
 10
8415836.833938133
 20
5746232.751752794
 10
8415836.722909901
 20
5746232.79728006
 10
8415836.639443247
 20
5746232.593728303
 10
8415836.750471477
 20
5746232.548201037
 10
8415835.695756475
 20
5746229.976047025
 10
8415835.584728242
 20
5746230.021574291
 10
8415835.501261589
 20
5746229.818022535
 10
8415835.61228982
 20
5746229.772495269
 10
8415834.557574816
 20
5746227.200341256
 10
8415834.446546584
 20
5746227.245868523
 10
8415834.36307993
 20
5746227.042316767
 10
8415834.474108162
 20
5746226.9967895
 10
8415833.419393157
 20
5746224.424635488
 10
8415833.308364927
 20
5746224.470162754
 10
8415833.224898271
 20
5746224.266610997
 10
8415833.335926503
 20
5746224.221083731
 10
8415832.2812115
 20
5746221.648929719
 10
8415832.17018327
 20
5746221.694456986
 10
8415832.086716616
 20
5746221.49090523
 10
8415832.197744844
 20
5746221.445377964
 10
8415831.143029841
 20
5746218.87322395
 10
8415831.03200161
 20
5746218.918751217
 10
8415830.948534955
 20
5746218.715199461
 10
8415831.059563185
 20
5746218.669672194
 10
8415830.004848183
 20
5746216.097518184
 10
8415829.893819953
 20
5746216.14304545
 10
8415829.810353297
 20
5746215.939493692
 10
8415829.921381527
 20
5746215.893966426
 10
8415828.866666526
 20
5746213.321812414
 10
8415828.755638294
 20
5746213.36733968
 10
8415828.67217164
 20
5746213.163787924
 10
8415828.78319987
 20
5746213.118260658
 10
8415827.728484865
 20
5746210.546106645
 10
8415827.617456635
 20
5746210.591633912
 10
8415827.533989981
 20
5746210.388082156
 10
8415827.645018213
 20
5746210.342554889
 10
8415826.590303208
 20
5746207.770400879
 10
8415826.479274977
 20
5746207.815928143
 10
8415826.395808322
 20
5746207.612376386
 10
8415826.506836552
 20
5746207.56684912
 10
8415825.45212155
 20
5746204.994695109
 10
8415825.341093318
 20
5746205.040222376
 10
8415825.257626664
 20
5746204.83667062
 10
8415825.368654896
 20
5746204.791143354
 10
8415824.313939891
 20
5746202.218989341
 10
8415824.202911661
 20
5746202.264516607
 10
8415824.119445005
 20
5746202.06096485
 10
8415824.230473237
 20
5746202.015437583
 10
8415823.175758234
 20
5746199.443283573
 10
8415823.064730004
 20
5746199.488810839
 10
8415822.981263348
 20
5746199.285259081
 10
8415823.092291578
 20
5746199.239731815
 10
8415822.037576575
 20
5746196.667577804
 10
8415821.926548344
 20
5746196.713105071
 10
8415821.84308169
 20
5746196.509553313
 10
8415821.954109921
 20
5746196.464026048
 10
8415820.899394915
 20
5746193.891872035
 10
8415820.788366685
 20
5746193.937399302
 10
8415820.704900029
 20
5746193.733847546
 10
8415820.815928261
 20
5746193.688320279
 10
8415819.761213258
 20
5746191.116166268
 10
8415819.650185028
 20
5746191.161693534
 10
8415819.566718374
 20
5746190.958141777
 10
8415819.677746604
 20
5746190.912614511
 10
8415818.623031601
 20
5746188.340460498
 10
8415818.512003371
 20
5746188.385987765
 10
8415818.428536715
 20
5746188.182436009
 10
8415818.539564945
 20
5746188.136908743
 10
8415817.484849942
 20
5746185.56475473
 10
8415817.373821711
 20
5746185.610281997
 10
8415817.290355056
 20
5746185.406730241
 10
8415817.401383289
 20
5746185.361202974
 10
8415816.346668284
 20
5746182.789048962
 10
8415816.235640052
 20
5746182.834576228
 10
8415816.152173398
 20
5746182.631024471
 10
8415816.263201628
 20
5746182.585497205
 10
8415815.208486627
 20
5746180.013343193
 10
8415815.097458393
 20
5746180.05887046
 10
8415815.013991741
 20
5746179.855318704
 10
8415815.125019971
 20
5746179.809791438
 10
8415814.070304968
 20
5746177.237637425
 10
8415813.959276736
 20
5746177.283164692
 10
8415813.875810082
 20
5746177.079612935
 10
8415813.986838314
 20
5746177.034085668
 10
8415812.932123309
 20
5746174.461931657
 10
8415812.821095078
 20
5746174.507458923
 10
8415812.737628423
 20
5746174.303907166
 10
8415812.848656655
 20
5746174.2583799
 10
8415811.793941651
 20
5746171.686225888
 10
8415811.682913421
 20
5746171.731753155
 10
8415811.599446765
 20
5746171.528201398
 10
8415811.710474995
 20
5746171.482674132
 10
8415810.655759992
 20
5746168.910520119
 10
8415810.544731764
 20
5746168.956047386
 10
8415810.461265108
 20
5746168.75249563
 10
8415810.572293336
 20
5746168.706968363
 10
8415809.517578335
 20
5746166.134814352
 10
8415809.406550105
 20
5746166.180341618
 10
8415809.323083449
 20
5746165.976789861
 10
8415809.434111679
 20
5746165.931262595
 10
8415808.284548203
 20
5746163.12779977
 10
8415808.173519973
 20
5746163.173327036
 10
8415808.090053321
 20
5746162.969775278
 10
8415808.201081549
 20
5746162.924248012
 10
8415808.142275537
 20
5746162.780836644
 10
8415806.594348442
 20
5746159.005876704
 10
8415814.310271276
 20
5746155.841899648
 10
8415815.858179676
 20
5746159.616813996
  0
LWPOLYLINE
  5
3DC
330
1F
100
AcDbEntity
  8
3 - CIENKA LINIA POMOCNICZA
100
AcDbPolyline
 90
      243
 70
     0
 43
0.0
 10
8415816.097307079
 20
5746159.778254025
 10
8415820.316903692
 20
5746158.048008358
 10
8415820.271376427
 20
5746157.936980128
 10
8415820.419414066
 20
5746157.876277106
 10
8415820.464941335
 20
5746157.987305336
 10
8415823.203637692
 20
5746156.864299433
 10
8415823.158110425
 20
5746156.753271202
 10
8415823.306148068
 20
5746156.692568181
 10
8415823.351675332
 20
5746156.803596412
 10
8415823.786535904
 20
5746156.625281286
 10
8415823.741008635
 20
5746156.514253055
 10
8415823.889046277
 20
5746156.453550034
 10
8415823.934573543
 20
5746156.564578264
 10
8415826.673269901
 20
5746155.44157236
 10
8415826.627742635
 20
5746155.33054413
 10
8415826.775780276
 20
5746155.269841108
 10
8415826.775780276
 20
5746155.269841108
 10
8415826.821307543
 20
5746155.380869338
 10
8415827.7229493
 20
5746155.011149997
 10
8415827.677422033
 20
5746154.900121767
 10
8415827.825459674
 20
5746154.839418744
 10
8415827.870986941
 20
5746154.950446975
 10
8415827.931265024
 20
5746154.925729871
 10
8415827.899016544
 20
5746154.847084874
 10
8415828.010044775
 20
5746154.801557607
 10
8415828.093511429
 20
5746155.005109365
 10
8415827.982483197
 20
5746155.050636629
 10
8415829.132046674
 20
5746157.854099456
 10
8415829.243074902
 20
5746157.808572189
 10
8415829.326541558
 20
5746158.012123948
 10
8415829.215513328
 20
5746158.057651213
 10
8415830.270228326
 20
5746160.629805228
 10
8415830.381256562
 20
5746160.584277959
 10
8415830.464723217
 20
5746160.787829715
 10
8415830.353694987
 20
5746160.833356982
 10
8415831.40840999
 20
5746163.405510993
 10
8415831.519438221
 20
5746163.359983727
 10
8415831.602904875
 20
5746163.563535483
 10
8415831.491876641
 20
5746163.609062752
 10
8415832.546591646
 20
5746166.181216762
 10
8415832.65761988
 20
5746166.135689495
 10
8415832.741086532
 20
5746166.339241254
 10
8415832.630058304
 20
5746166.38476852
 10
8415833.684773305
 20
5746168.956922531
 10
8415833.795801537
 20
5746168.911395264
 10
8415833.879268191
 20
5746169.11494702
 10
8415833.768239959
 20
5746169.160474287
 10
8415834.822954964
 20
5746171.732628299
 10
8415834.933983195
 20
5746171.687101033
 10
8415835.01744985
 20
5746171.890652789
 10
8415834.906421618
 20
5746171.936180055
 10
8415835.961136622
 20
5746174.508334067
 10
8415836.072164852
 20
5746174.4628068
 10
8415836.155631509
 20
5746174.666358558
 10
8415836.044603274
 20
5746174.711885827
 10
8415837.099318281
 20
5746177.284039836
 10
8415837.210346513
 20
5746177.23851257
 10
8415837.293813165
 20
5746177.442064326
 10
8415837.182784937
 20
5746177.487591593
 10
8415838.237499938
 20
5746180.059745604
 10
8415838.348528168
 20
5746180.014218338
 10
8415838.431994824
 20
5746180.217770094
 10
8415838.320966594
 20
5746180.26329736
 10
8415839.375681597
 20
5746182.835451373
 10
8415839.486709828
 20
5746182.789924106
 10
8415839.570176482
 20
5746182.993475863
 10
8415839.459148251
 20
5746183.039003129
 10
8415840.513863255
 20
5746185.611157142
 10
8415840.624891487
 20
5746185.565629875
 10
8415840.708358141
 20
5746185.769181631
 10
8415840.597329911
 20
5746185.814708898
 10
8415841.652044914
 20
5746188.386862909
 10
8415841.763073144
 20
5746188.341335643
 10
8415841.8465398
 20
5746188.5448874
 10
8415841.73551157
 20
5746188.590414666
 10
8415842.79022657
 20
5746191.162568679
 10
8415842.901254803
 20
5746191.117041411
 10
8415842.984721457
 20
5746191.320593169
 10
8415842.873693229
 20
5746191.366120435
 10
8415843.92840823
 20
5746193.938274447
 10
8415844.039436461
 20
5746193.89274718
 10
8415844.122903116
 20
5746194.096298936
 10
8415844.011874883
 20
5746194.141826203
 10
8415845.066589888
 20
5746196.713980215
 10
8415845.17761812
 20
5746196.668452949
 10
8415845.261084774
 20
5746196.872004705
 10
8415845.150056544
 20
5746196.917531971
 10
8415846.204771547
 20
5746199.489685982
 10
8415846.315799777
 20
5746199.444158715
 10
8415846.399266433
 20
5746199.647710474
 10
8415846.288238201
 20
5746199.69323774
 10
8415847.342953206
 20
5746202.265391753
 10
8415847.453981436
 20
5746202.219864486
 10
8415847.537448088
 20
5746202.423416242
 10
8415847.42641986
 20
5746202.468943509
 10
8415848.481134863
 20
5746205.041097519
 10
8415848.592163094
 20
5746204.995570253
 10
8415848.675629749
 20
5746205.199122009
 10
8415848.564601517
 20
5746205.244649275
 10
8415849.619316523
 20
5746207.816803288
 10
8415849.730344751
 20
5746207.771276021
 10
8415849.813811407
 20
5746207.97482778
 10
8415849.702783177
 20
5746208.020355046
 10
8415850.757498178
 20
5746210.592509057
 10
8415850.86852641
 20
5746210.546981791
 10
8415850.951993066
 20
5746210.750533547
 10
8415850.840964836
 20
5746210.796060814
 10
8415851.895679836
 20
5746213.368214825
 10
8415852.006708069
 20
5746213.322687559
 10
8415852.090174723
 20
5746213.526239315
 10
8415851.979146493
 20
5746213.571766581
 10
8415853.033861495
 20
5746216.143920593
 10
8415853.144889728
 20
5746216.098393326
 10
8415853.228356381
 20
5746216.301945085
 10
8415853.117328152
 20
5746216.347472351
 10
8415854.172043152
 20
5746218.919626362
 10
8415854.283071386
 20
5746218.874099096
 10
8415854.36653804
 20
5746219.077650853
 10
8415854.255509808
 20
5746219.12317812
 10
8415855.310224813
 20
5746221.69533213
 10
8415855.421253043
 20
5746221.649804864
 10
8415855.504719699
 20
5746221.85335662
 10
8415855.393691467
 20
5746221.898883886
 10
8415856.448406469
 20
5746224.471037899
 10
8415856.559434701
 20
5746224.425510631
 10
8415856.642901358
 20
5746224.629062389
 10
8415856.531873126
 20
5746224.674589655
 10
8415857.586588128
 20
5746227.246743668
 10
8415857.697616361
 20
5746227.201216401
 10
8415857.781083014
 20
5746227.404768157
 10
8415857.670054785
 20
5746227.450295424
 10
8415858.724769787
 20
5746230.022449435
 10
8415858.835798017
 20
5746229.976922169
 10
8415858.919264675
 20
5746230.180473926
 10
8415858.808236443
 20
5746230.226001192
 10
8415859.862951446
 20
5746232.798155204
 10
8415859.973979676
 20
5746232.752627937
 10
8415860.05744633
 20
5746232.956179695
 10
8415859.9464181
 20
5746233.001706961
 10
8415861.001133103
 20
5746235.573860973
 10
8415861.112161335
 20
5746235.528333706
 10
8415861.195627989
 20
5746235.731885462
 10
8415861.084599759
 20
5746235.777412729
 10
8415862.139314759
 20
5746238.349566741
 10
8415862.250342993
 20
5746238.304039475
 10
8415862.333809648
 20
5746238.507591231
 10
8415862.222781417
 20
5746238.553118498
 10
8415863.27749642
 20
5746241.125272509
 10
8415863.388524652
 20
5746241.079745242
 10
8415863.471991306
 20
5746241.283297
 10
8415863.360963077
 20
5746241.328824266
 10
8415864.415678079
 20
5746243.900978278
 10
8415864.526706311
 20
5746243.855451012
 10
8415864.610172965
 20
5746244.059002768
 10
8415864.499144733
 20
5746244.104530035
 10
8415865.553859736
 20
5746246.676684046
 10
8415865.664887968
 20
5746246.63115678
 10
8415865.748354622
 20
5746246.834708536
 10
8415865.637326389
 20
5746246.880235803
 10
8415866.692041396
 20
5746249.452389815
 10
8415866.803069626
 20
5746249.406862548
 10
8415866.886536282
 20
5746249.610414306
 10
8415866.775508048
 20
5746249.655941572
 10
8415867.830223055
 20
5746252.228095584
 10
8415867.941251285
 20
5746252.182568317
 10
8415868.024717937
 20
5746252.386120073
 10
8415867.913689707
 20
5746252.43164734
 10
8415868.968404712
 20
5746255.00380135
 10
8415869.079432942
 20
5746254.958274085
 10
8415869.162899598
 20
5746255.161825842
 10
8415869.051871366
 20
5746255.207353108
 10
8415870.106586369
 20
5746257.779507121
 10
8415870.2176146
 20
5746257.733979852
 10
8415870.301081255
 20
5746257.937531611
 10
8415870.190053023
 20
5746257.983058877
 10
8415871.244768027
 20
5746260.555212889
 10
8415871.355796259
 20
5746260.509685622
 10
8415871.439262915
 20
5746260.713237378
 10
8415871.328234683
 20
5746260.758764645
 10
8415872.382949684
 20
5746263.330918658
 10
8415872.493977918
 20
5746263.285391391
 10
8415872.577444572
 20
5746263.488943147
 10
8415872.466416342
 20
5746263.534470414
 10
8415873.521131343
 20
5746266.106624424
 10
8415873.632159575
 20
5746266.061097157
 10
8415873.715626229
 20
5746266.264648916
 10
8415873.604598001
 20
5746266.310176182
 10
8415874.659313002
 20
5746268.882330195
 10
8415874.770341234
 20
5746268.836802928
 10
8415874.853807888
 20
5746269.040354684
 10
8415874.742779656
 20
5746269.085881951
 10
8415875.797494662
 20
5746271.658035961
 10
8415875.908522892
 20
5746271.612508695
 10
8415875.991989548
 20
5746271.816060451
 10
8415875.880961316
 20
5746271.861587717
 10
8415876.935676319
 20
5746274.43374173
 10
8415877.046704549
 20
5746274.388214463
 10
8415877.130171207
 20
5746274.591766222
 10
8415877.019142975
 20
5746274.637293488
 10
8415878.073857978
 20
5746277.209447499
 10
8415878.184886206
 20
5746277.163920233
 10
8415878.268352862
 20
5746277.367471988
 10
8415878.157324634
 20
5746277.412999255
 10
8415879.212039637
 20
5746279.985153267
 10
8415879.323067866
 20
5746279.939626001
 10
8415879.406534523
 20
5746280.143177757
 10
8415879.295506291
 20
5746280.188705023
 10
8415880.350221295
 20
5746282.760859035
 10
8415880.461249525
 20
5746282.715331768
 10
8415880.544716179
 20
5746282.918883527
 10
8415880.433687949
 20
5746282.964410793
 10
8415881.488402952
 20
5746285.536564804
 10
8415881.599431184
 20
5746285.491037538
 10
8415881.682897838
 20
5746285.694589295
 10
8415881.571869608
 20
5746285.740116561
 10
8415882.626584611
 20
5746288.312270572
 10
8415882.737612841
 20
5746288.266743306
 10
8415882.821079497
 20
5746288.470295062
 10
8415882.710051265
 20
5746288.515822328
 10
8415882.676091664
 20
5746288.433004386
 10
8415882.615813583
 20
5746288.457721489
 10
8415882.661340848
 20
5746288.56874972
 10
8415882.513303206
 20
5746288.629452742
 10
8415882.46777594
 20
5746288.518424512
 10
8415881.566134183
 20
5746288.888143855
 10
8415881.611661449
 20
5746288.999172084
 10
8415881.463623806
 20
5746289.059875106
 10
8415881.418096542
 20
5746288.948846876
 10
8415878.679400183
 20
5746290.071852779
 10
8415878.724927448
 20
5746290.18288101
 10
8415878.576889809
 20
5746290.24358403
 10
8415878.531362544
 20
5746290.1325558
 10
8415878.096501973
 20
5746290.310870927
 10
8415878.142029239
 20
5746290.421899157
 10
8415877.993991598
 20
5746290.482602177
 10
8415877.948464331
 20
5746290.371573947
 10
8415875.209767973
 20
5746291.494579851
 10
8415875.25529524
 20
5746291.605608081
 10
8415875.107257598
 20
5746291.666311103
 10
8415875.061730332
 20
5746291.555282873
 10
8415874.940456882
 20
5746291.605011204
 10
8415874.985984148
 20
5746291.716039434
 10
8415874.837946509
 20
5746291.776742456
  0
LWPOLYLINE
  5
3DD
330
1F
100
AcDbEntity
  8
3 - CIENKA LINIA POMOCNICZA
100
AcDbPolyline
 90
        2
 70
     0
 43
0.0
 10
8415815.858217067
 20
5746159.616905183
 10
8415815.903742224
 20
5746159.727928609
  0
LWPOLYLINE
  5
3DE
330
1F
100
AcDbEntity
  8
3 - CIENKA LINIA POMOCNICZA
100
AcDbPolyline
 90
        3
 70
     0
 43
0.0
 10
8415816.097307013
 20
5746159.778253867
 10
8415816.051779748
 20
5746159.667225636
 10
8415815.903742105
 20
5746159.727928659
  0
LWPOLYLINE
  5
3DF
330
1F
100
AcDbEntity
  8
3 - CIENKA LINIA POMOCNICZA
100
AcDbPolyline
 90
        8
 70
     0
 43
0.0
 10
8415870.723365834
 20
5746293.334234718
 10
8415870.7688931
 20
5746293.445262947
 10
8415870.916930741
 20
5746293.384559926
 10
8415870.871403477
 20
5746293.273531697
 10
8415874.792419241
 20
5746291.665714228
 10
8415874.837946509
 20
5746291.776742456
 10
8415874.985984148
 20
5746291.716039434
 10
8415874.940456882
 20
5746291.605011204
  0
LWPOLYLINE
  5
3E0
330
1F
100
AcDbEntity
  8
3 - CIENKA LINIA POMOCNICZA
100
AcDbPolyline
 90
        7
 70
     0
 43
0.0
 10
8415882.354911156
 20
5746288.296814385
 10
8415863.119682409
 20
5746296.184496683
 10
8415806.926364293
 20
5746159.144771788
 10
8415814.171359331
 20
5746156.173952417
 10
8415815.837041005
 20
5746160.236082739
 10
8415827.827423996
 20
5746155.31957203
 10
8415882.354902358
 20
5746288.29680905
  0
LWPOLYLINE
  5
3E1
330
1F
100
AcDbEntity
  8
3 - CIENKA LINIA POMOCNICZA
100
AcDbPolyline
 90
        5
 70
     0
 43
0.0
 10
8415828.071808036
 20
5746154.60860025
 10
8415883.000492176
 20
5746288.564251627
 10
8415862.848865863
 20
5746296.827451465
 10
8415807.920277162
 20
5746162.871867246
 10
8415808.142275537
 20
5746162.780836644
  0
LWPOLYLINE
  5
3E2
330
1F
100
AcDbEntity
  8
3 - CIENKA LINIA POMOCNICZA
100
AcDbPolyline
 90
        2
 70
     0
 43
0.0
 10
8415828.071845389
 20
5746154.608691339
 10
8415815.858217067
 20
5746159.616905183
  0
LWPOLYLINE
  5
3E3
330
1F
100
AcDbEntity
  8
3 - CIENKA LINIA POMOCNICZA
100
AcDbPolyline
 90
      223
 70
     0
 43
0.0
 10
8415922.894563301
 20
5746272.071063877
 10
8415922.849036086
 20
5746271.960035627
 10
8415922.933296126
 20
5746271.925484735
 10
8415922.978823344
 20
5746272.036512985
 10
8415923.126861011
 20
5746271.975810032
 10
8415923.081333795
 20
5746271.86478178
 10
8415925.820030661
 20
5746270.741777116
 10
8415925.865557877
 20
5746270.852805369
 10
8415926.013595546
 20
5746270.792102413
 10
8415925.96806833
 20
5746270.681074161
 10
8415926.439938399
 20
5746270.487583493
 10
8415926.485465615
 20
5746270.598611744
 10
8415926.633503282
 20
5746270.537908789
 10
8415926.587976066
 20
5746270.426880538
 10
8415929.326672932
 20
5746269.303875875
 10
8415929.372200148
 20
5746269.414904125
 10
8415929.520237817
 20
5746269.354201172
 10
8415929.474710599
 20
5746269.243172918
 10
8415930.376352525
 20
5746268.873453986
 10
8415930.421879741
 20
5746268.984482236
 10
8415930.569917408
 20
5746268.923779282
 10
8415930.524390192
 20
5746268.81275103
 10
8415930.594246685
 20
5746268.784106326
 10
8415930.628206249
 20
5746268.866924284
 10
8415930.739234502
 20
5746268.821397068
 10
8415930.655767938
 20
5746268.617845275
 10
8415930.544739687
 20
5746268.66337249
 10
8415929.490025849
 20
5746266.091218
 10
8415929.601054099
 20
5746266.045690784
 10
8415929.517587535
 20
5746265.842138991
 10
8415929.406559284
 20
5746265.887666206
 10
8415928.351845446
 20
5746263.315511718
 10
8415928.462873697
 20
5746263.269984503
 10
8415928.379407134
 20
5746263.066432707
 10
8415928.268378882
 20
5746263.111959923
 10
8415927.213665042
 20
5746260.539805434
 10
8415927.324693294
 20
5746260.494278218
 10
8415927.24122673
 20
5746260.290726423
 10
8415927.130198479
 20
5746260.336253639
 10
8415926.075484641
 20
5746257.764099151
 10
8415926.186512891
 20
5746257.718571935
 10
8415926.103046327
 20
5746257.515020139
 10
8415925.992018078
 20
5746257.560547356
 10
8415924.937304238
 20
5746254.988392867
 10
8415925.048332489
 20
5746254.942865651
 10
8415924.964865928
 20
5746254.739313855
 10
8415924.853837674
 20
5746254.784841072
 10
8415923.799123834
 20
5746252.212686584
 10
8415923.910152086
 20
5746252.167159367
 10
8415923.826685524
 20
5746251.963607574
 10
8415923.715657271
 20
5746252.00913479
 10
8415922.660943433
 20
5746249.436980299
 10
8415922.771971684
 20
5746249.391453083
 10
8415922.688505121
 20
5746249.18790129
 10
8415922.577476871
 20
5746249.233428506
 10
8415921.52276303
 20
5746246.661274016
 10
8415921.633791281
 20
5746246.615746799
 10
8415921.55032472
 20
5746246.412195008
 10
8415921.439296468
 20
5746246.457722224
 10
8415920.384582628
 20
5746243.885567734
 10
8415920.495610878
 20
5746243.840040518
 10
8415920.412144316
 20
5746243.636488725
 10
8415920.301116065
 20
5746243.68201594
 10
8415919.246402227
 20
5746241.10986145
 10
8415919.357430476
 20
5746241.064334234
 10
8415919.273963913
 20
5746240.860782441
 10
8415919.162935663
 20
5746240.906309657
 10
8415918.108221823
 20
5746238.334155166
 10
8415918.219250073
 20
5746238.28862795
 10
8415918.135783511
 20
5746238.085076157
 10
8415918.02475526
 20
5746238.130603372
 10
8415916.97004142
 20
5746235.558448885
 10
8415917.08106967
 20
5746235.512921669
 10
8415916.997603108
 20
5746235.309369873
 10
8415916.886574857
 20
5746235.354897089
 10
8415915.831861017
 20
5746232.782742601
 10
8415915.94288927
 20
5746232.737215385
 10
8415915.859422707
 20
5746232.533663589
 10
8415915.748394455
 20
5746232.579190806
 10
8415914.693680614
 20
5746230.007036317
 10
8415914.804708867
 20
5746229.961509101
 10
8415914.721242305
 20
5746229.757957305
 10
8415914.610214052
 20
5746229.803484522
 10
8415913.555500214
 20
5746227.231330033
 10
8415913.666528464
 20
5746227.185802817
 10
8415913.583061902
 20
5746226.982251024
 10
8415913.472033649
 20
5746227.027778239
 10
8415912.417319811
 20
5746224.45562375
 10
8415912.528348062
 20
5746224.410096533
 10
8415912.444881499
 20
5746224.20654474
 10
8415912.333853249
 20
5746224.252071956
 10
8415911.279139406
 20
5746221.679917466
 10
8415911.390167659
 20
5746221.63439025
 10
8415911.306701095
 20
5746221.430838456
 10
8415911.195672846
 20
5746221.476365673
 10
8415910.140959006
 20
5746218.904211182
 10
8415910.251987256
 20
5746218.858683966
 10
8415910.168520692
 20
5746218.655132175
 10
8415910.057492443
 20
5746218.70065939
 10
8415909.002778603
 20
5746216.1285049
 10
8415909.113806854
 20
5746216.082977684
 10
8415909.030340293
 20
5746215.879425891
 10
8415908.919312041
 20
5746215.924953106
 10
8415907.864598199
 20
5746213.352798617
 10
8415907.975626451
 20
5746213.3072714
 10
8415907.892159889
 20
5746213.103719607
 10
8415907.781131638
 20
5746213.149246823
 10
8415906.726417798
 20
5746210.577092334
 10
8415906.837446049
 20
5746210.531565118
 10
8415906.753979486
 20
5746210.328013323
 10
8415906.642951236
 20
5746210.37354054
 10
8415905.588237395
 20
5746207.801386051
 10
8415905.699265648
 20
5746207.755858835
 10
8415905.615799085
 20
5746207.552307039
 10
8415905.504770833
 20
5746207.597834255
 10
8415904.450056993
 20
5746205.025679767
 10
8415904.561085245
 20
5746204.980152551
 10
8415904.477618681
 20
5746204.776600755
 10
8415904.366590428
 20
5746204.822127972
 10
8415903.311876592
 20
5746202.249973483
 10
8415903.422904841
 20
5746202.204446267
 10
8415903.339438278
 20
5746202.000894473
 10
8415903.228410028
 20
5746202.046421688
 10
8415902.173696188
 20
5746199.4742672
 10
8415902.28472444
 20
5746199.428739983
 10
8415902.201257877
 20
5746199.22518819
 10
8415902.090229625
 20
5746199.270715406
 10
8415901.035515785
 20
5746196.698560916
 10
8415901.146544038
 20
5746196.653033699
 10
8415901.063077473
 20
5746196.449481906
 10
8415900.952049222
 20
5746196.495009122
 10
8415899.897335384
 20
5746193.922854632
 10
8415900.008363635
 20
5746193.877327416
 10
8415899.924897072
 20
5746193.673775625
 10
8415899.81386882
 20
5746193.71930284
 10
8415898.75915498
 20
5746191.14714835
 10
8415898.870183232
 20
5746191.101621134
 10
8415898.78671667
 20
5746190.898069341
 10
8415898.675688417
 20
5746190.943596557
 10
8415897.620974579
 20
5746188.371442066
 10
8415897.73200283
 20
5746188.32591485
 10
8415897.648536267
 20
5746188.122363057
 10
8415897.537508014
 20
5746188.167890273
 10
8415896.482794178
 20
5746185.595735785
 10
8415896.593822427
 20
5746185.550208569
 10
8415896.510355864
 20
5746185.346656773
 10
8415896.399327614
 20
5746185.392183989
 10
8415895.344613774
 20
5746182.820029501
 10
8415895.455642024
 20
5746182.774502285
 10
8415895.372175462
 20
5746182.570950489
 10
8415895.261147209
 20
5746182.616477706
 10
8415894.206433371
 20
5746180.044323217
 10
8415894.317461621
 20
5746179.998796001
 10
8415894.233995059
 20
5746179.795244205
 10
8415894.122966808
 20
5746179.840771421
 10
8415893.068252968
 20
5746177.268616933
 10
8415893.179281219
 20
5746177.223089717
 10
8415893.095814658
 20
5746177.019537922
 10
8415892.984786406
 20
5746177.065065138
 10
8415891.930072566
 20
5746174.492910649
 10
8415892.041100816
 20
5746174.447383433
 10
8415891.957634254
 20
5746174.24383164
 10
8415891.846606003
 20
5746174.289358856
 10
8415890.791892163
 20
5746171.717204366
 10
8415890.902920414
 20
5746171.67167715
 10
8415890.819453853
 20
5746171.468125356
 10
8415890.708425601
 20
5746171.513652573
 10
8415889.65371176
 20
5746168.941498082
 10
8415889.764740011
 20
5746168.895970866
 10
8415889.68127345
 20
5746168.692419074
 10
8415889.570245198
 20
5746168.73794629
 10
8415888.515531358
 20
5746166.1657918
 10
8415888.62655961
 20
5746166.120264584
 10
8415888.543093046
 20
5746165.916712791
 10
8415888.432064797
 20
5746165.962240006
 10
8415887.377350955
 20
5746163.390085516
 10
8415887.488379206
 20
5746163.3445583
 10
8415887.404912645
 20
5746163.141006507
 10
8415887.293884393
 20
5746163.186533723
 10
8415886.239170554
 20
5746160.614379234
 10
8415886.350198805
 20
5746160.568852018
 10
8415886.266732242
 20
5746160.365300223
 10
8415886.155703992
 20
5746160.41082744
 10
8415885.10099015
 20
5746157.838672951
 10
8415885.212018404
 20
5746157.793145735
 10
8415885.128551838
 20
5746157.589593939
 10
8415885.017523589
 20
5746157.635121155
 10
8415883.962809749
 20
5746155.062966667
 10
8415884.073838
 20
5746155.017439451
 10
8415883.990371437
 20
5746154.813887655
 10
8415883.879343185
 20
5746154.859414872
 10
8415882.824629346
 20
5746152.287260383
 10
8415882.935657599
 20
5746152.241733167
 10
8415882.852191034
 20
5746152.038181373
 10
8415882.741162782
 20
5746152.083708587
 10
8415881.686448944
 20
5746149.5115541
 10
8415881.797477196
 20
5746149.466026884
 10
8415881.714010632
 20
5746149.26247509
 10
8415881.602982382
 20
5746149.308002307
 10
8415880.548268543
 20
5746146.735847815
 10
8415880.659296792
 20
5746146.690320599
 10
8415880.575830229
 20
5746146.486768806
 10
8415880.464801977
 20
5746146.532296022
 10
8415879.410088139
 20
5746143.960141532
 10
8415879.521116391
 20
5746143.914614316
 10
8415879.437649827
 20
5746143.711062522
 10
8415879.326621574
 20
5746143.756589739
 10
8415878.271907736
 20
5746141.18443525
 10
8415878.382935988
 20
5746141.138908034
 10
8415878.299469424
 20
5746140.93535624
 10
8415878.188441173
 20
5746140.980883457
 10
8415877.133727335
 20
5746138.408728967
 10
8415877.244755584
 20
5746138.36320175
 10
8415877.161289023
 20
5746138.159649957
 10
8415877.050260771
 20
5746138.205177174
 10
8415875.900698566
 20
5746135.401713826
 10
8415876.011726815
 20
5746135.356186609
 10
8415875.928260252
 20
5746135.152634816
 10
8415875.817232002
 20
5746135.198162033
 10
8415875.758426054
 20
5746135.054750636
 10
8415874.210500668
 20
5746131.279789996
 10
8415866.494539091
 20
5746134.443672567
 10
8415868.042445783
 20
5746138.218587616
  0
LWPOLYLINE
  5
3E4
330
1F
100
AcDbEntity
  8
3 - CIENKA LINIA POMOCNICZA
100
AcDbPolyline
 90
      243
 70
     0
 43
0.0
 10
8415867.985498248
 20
5746138.50143347
 10
8415863.765904543
 20
5746140.231686227
 10
8415863.720377327
 20
5746140.120657977
 10
8415863.572339658
 20
5746140.181360932
 10
8415863.617866873
 20
5746140.292389183
 10
8415860.879170008
 20
5746141.415393846
 10
8415860.833642792
 20
5746141.304365596
 10
8415860.685605125
 20
5746141.365068551
 10
8415860.731132339
 20
5746141.476096801
 10
8415860.29627169
 20
5746141.65441173
 10
8415860.250744472
 20
5746141.543383479
 10
8415860.102706805
 20
5746141.604086434
 10
8415860.14823402
 20
5746141.715114687
 10
8415857.409537155
 20
5746142.83811935
 10
8415857.364009937
 20
5746142.727091098
 10
8415857.215972268
 20
5746142.787794053
 10
8415857.215972268
 20
5746142.787794053
 10
8415857.261499487
 20
5746142.898822304
 10
8415856.359857562
 20
5746143.268541239
 10
8415856.314330346
 20
5746143.157512987
 10
8415856.166292677
 20
5746143.218215942
 10
8415856.211819892
 20
5746143.329244192
 10
8415856.151541799
 20
5746143.35396127
 10
8415856.119293355
 20
5746143.275316259
 10
8415856.008265105
 20
5746143.320843475
 10
8415856.091731665
 20
5746143.524395269
 10
8415856.202759918
 20
5746143.478868052
 10
8415857.352322124
 20
5746146.282331397
 10
8415857.241293872
 20
5746146.327858614
 10
8415857.324760434
 20
5746146.531410409
 10
8415857.435788687
 20
5746146.485883193
 10
8415858.490502531
 20
5746149.05803768
 10
8415858.379474276
 20
5746149.103564897
 10
8415858.462940837
 20
5746149.307116693
 10
8415858.573969089
 20
5746149.261589477
 10
8415859.628682929
 20
5746151.833743965
 10
8415859.517654677
 20
5746151.879271182
 10
8415859.601121239
 20
5746152.082822975
 10
8415859.712149494
 20
5746152.037295758
 10
8415860.766863332
 20
5746154.609450249
 10
8415860.65583508
 20
5746154.654977465
 10
8415860.739301642
 20
5746154.858529259
 10
8415860.850329893
 20
5746154.813002042
 10
8415861.905043735
 20
5746157.385156533
 10
8415861.794015482
 20
5746157.430683748
 10
8415861.877482045
 20
5746157.634235542
 10
8415861.988510298
 20
5746157.588708324
 10
8415863.043224135
 20
5746160.160862815
 10
8415862.932195885
 20
5746160.206390031
 10
8415863.015662447
 20
5746160.409941826
 10
8415863.126690698
 20
5746160.36441461
 10
8415864.18140454
 20
5746162.936569098
 10
8415864.070376288
 20
5746162.982096315
 10
8415864.15384285
 20
5746163.185648108
 10
8415864.264871105
 20
5746163.14012089
 10
8415865.319584941
 20
5746165.712275382
 10
8415865.20855669
 20
5746165.757802598
 10
8415865.292023253
 20
5746165.961354392
 10
8415865.403051503
 20
5746165.915827175
 10
8415866.457765345
 20
5746168.487981666
 10
8415866.346737091
 20
5746168.533508881
 10
8415866.430203656
 20
5746168.737060676
 10
8415866.541231906
 20
5746168.691533459
 10
8415867.595945746
 20
5746171.263687948
 10
8415867.484917496
 20
5746171.309215164
 10
8415867.568384056
 20
5746171.512766959
 10
8415867.679412311
 20
5746171.467239742
 10
8415868.734126147
 20
5746174.039394231
 10
8415868.623097896
 20
5746174.084921448
 10
8415868.706564461
 20
5746174.288473242
 10
8415868.817592709
 20
5746174.242946027
 10
8415869.872306553
 20
5746176.815100515
 10
8415869.761278299
 20
5746176.860627731
 10
8415869.844744863
 20
5746177.064179525
 10
8415869.955773112
 20
5746177.018652308
 10
8415871.010486956
 20
5746179.590806796
 10
8415870.899458703
 20
5746179.636334016
 10
8415870.982925266
 20
5746179.839885809
 10
8415871.093953517
 20
5746179.794358592
 10
8415872.148667356
 20
5746182.366513083
 10
8415872.037639104
 20
5746182.412040298
 10
8415872.121105667
 20
5746182.615592092
 10
8415872.232133921
 20
5746182.570064875
 10
8415873.286847759
 20
5746185.142219364
 10
8415873.175819507
 20
5746185.187746581
 10
8415873.259286069
 20
5746185.391298375
 10
8415873.37031432
 20
5746185.34577116
 10
8415874.42502816
 20
5746187.917925648
 10
8415874.313999911
 20
5746187.963452864
 10
8415874.397466474
 20
5746188.167004659
 10
8415874.508494724
 20
5746188.121477444
 10
8415875.563208564
 20
5746190.693631932
 10
8415875.45218031
 20
5746190.739159149
 10
8415875.535646874
 20
5746190.942710942
 10
8415875.646675127
 20
5746190.897183725
 10
8415876.701388967
 20
5746193.469338216
 10
8415876.590360715
 20
5746193.514865431
 10
8415876.673827277
 20
5746193.718417226
 10
8415876.78485553
 20
5746193.672890009
 10
8415877.839569366
 20
5746196.2450445
 10
8415877.728541117
 20
5746196.290571715
 10
8415877.81200768
 20
5746196.494123508
 10
8415877.923035932
 20
5746196.448596293
 10
8415878.977749772
 20
5746199.020750781
 10
8415878.866721518
 20
5746199.066277998
 10
8415878.950188082
 20
5746199.269829793
 10
8415879.061216333
 20
5746199.224302577
 10
8415880.115930175
 20
5746201.796457065
 10
8415880.004901922
 20
5746201.841984282
 10
8415880.088368485
 20
5746202.045536075
 10
8415880.199396736
 20
5746202.000008858
 10
8415881.254110574
 20
5746204.572163349
 10
8415881.143082325
 20
5746204.617690565
 10
8415881.226548888
 20
5746204.821242359
 10
8415881.337577138
 20
5746204.775715142
 10
8415882.39229098
 20
5746207.34786963
 10
8415882.281262728
 20
5746207.393396848
 10
8415882.364729288
 20
5746207.596948642
 10
8415882.475757541
 20
5746207.551421426
 10
8415883.530471381
 20
5746210.123575914
 10
8415883.419443131
 20
5746210.169103131
 10
8415883.502909693
 20
5746210.372654926
 10
8415883.613937944
 20
5746210.32712771
 10
8415884.668651784
 20
5746212.899282198
 10
8415884.557623531
 20
5746212.944809415
 10
8415884.641090096
 20
5746213.148361209
 10
8415884.752118344
 20
5746213.102833994
 10
8415885.806832188
 20
5746215.674988482
 10
8415885.695803934
 20
5746215.720515698
 10
8415885.779270496
 20
5746215.924067492
 10
8415885.890298749
 20
5746215.878540275
 10
8415886.945012587
 20
5746218.450694766
 10
8415886.833984338
 20
5746218.496221981
 10
8415886.917450899
 20
5746218.699773775
 10
8415887.028479152
 20
5746218.654246559
 10
8415888.08319299
 20
5746221.22640105
 10
8415887.972164739
 20
5746221.271928265
 10
8415888.055631302
 20
5746221.47548006
 10
8415888.166659552
 20
5746221.429952843
 10
8415889.221373394
 20
5746224.002107331
 10
8415889.110345142
 20
5746224.047634548
 10
8415889.193811704
 20
5746224.251186342
 10
8415889.304839955
 20
5746224.205659127
 10
8415890.359553795
 20
5746226.777813615
 10
8415890.248525546
 20
5746226.823340832
 10
8415890.331992107
 20
5746227.026892625
 10
8415890.443020359
 20
5746226.981365408
 10
8415891.497734198
 20
5746229.553519899
 10
8415891.386705947
 20
5746229.599047114
 10
8415891.470172509
 20
5746229.802598909
 10
8415891.58120076
 20
5746229.757071692
 10
8415892.635914602
 20
5746232.329226183
 10
8415892.52488635
 20
5746232.374753398
 10
8415892.608352912
 20
5746232.578305193
 10
8415892.719381165
 20
5746232.532777976
 10
8415893.774095003
 20
5746235.104932467
 10
8415893.663066752
 20
5746235.150459682
 10
8415893.746533315
 20
5746235.354011475
 10
8415893.857561567
 20
5746235.30848426
 10
8415894.912275406
 20
5746237.880638748
 10
8415894.801247153
 20
5746237.926165965
 10
8415894.884713717
 20
5746238.12971776
 10
8415894.995741968
 20
5746238.084190544
 10
8415896.05045581
 20
5746240.656345032
 10
8415895.939427556
 20
5746240.701872249
 10
8415896.02289412
 20
5746240.905424042
 10
8415896.133922371
 20
5746240.859896825
 10
8415897.188636209
 20
5746243.432051316
 10
8415897.07760796
 20
5746243.477578532
 10
8415897.161074523
 20
5746243.681130326
 10
8415897.272102773
 20
5746243.635603109
 10
8415898.326816614
 20
5746246.2077576
 10
8415898.215788361
 20
5746246.253284815
 10
8415898.299254925
 20
5746246.456836608
 10
8415898.410283176
 20
5746246.411309392
 10
8415899.464997016
 20
5746248.983463881
 10
8415899.353968764
 20
5746249.028991098
 10
8415899.437435328
 20
5746249.232542893
 10
8415899.548463579
 20
5746249.187015674
 10
8415900.603177419
 20
5746251.759170165
 10
8415900.492149166
 20
5746251.804697382
 10
8415900.575615731
 20
5746252.008249176
 10
8415900.686643981
 20
5746251.962721959
 10
8415901.741357821
 20
5746254.534876449
 10
8415901.630329567
 20
5746254.580403665
 10
8415901.713796131
 20
5746254.783955459
 10
8415901.824824384
 20
5746254.738428242
 10
8415902.879538222
 20
5746257.310582733
 10
8415902.768509971
 20
5746257.356109948
 10
8415902.851976534
 20
5746257.559661741
 10
8415902.963004787
 20
5746257.514134526
 10
8415904.017718625
 20
5746260.086289017
 10
8415903.906690374
 20
5746260.131816232
 10
8415903.990156937
 20
5746260.335368027
 10
8415904.101185187
 20
5746260.28984081
 10
8415905.155899027
 20
5746262.861995298
 10
8415905.044870777
 20
5746262.907522515
 10
8415905.128337339
 20
5746263.111074309
 10
8415905.23936559
 20
5746263.065547094
 10
8415906.29407943
 20
5746265.637701582
 10
8415906.183051179
 20
5746265.683228798
 10
8415906.266517742
 20
5746265.886780592
 10
8415906.377545994
 20
5746265.841253375
 10
8415907.432259832
 20
5746268.413407866
 10
8415907.321231582
 20
5746268.458935081
 10
8415907.404698144
 20
5746268.662486875
 10
8415907.515726395
 20
5746268.616959659
 10
8415908.570440235
 20
5746271.18911415
 10
8415908.459411985
 20
5746271.234641366
 10
8415908.542878547
 20
5746271.43819316
 10
8415908.653906798
 20
5746271.392665943
 10
8415909.708620638
 20
5746273.964820434
 10
8415909.597592387
 20
5746274.010347649
 10
8415909.681058948
 20
5746274.213899442
 10
8415909.792087202
 20
5746274.168372227
 10
8415910.846801041
 20
5746276.740526715
 10
8415910.735772788
 20
5746276.786053932
 10
8415910.819239352
 20
5746276.989605727
 10
8415910.930267603
 20
5746276.944078511
 10
8415910.896308039
 20
5746276.861260552
 10
8415910.956586131
 20
5746276.836543475
 10
8415911.002113348
 20
5746276.947571726
 10
8415911.150151016
 20
5746276.886868771
 10
8415911.1046238
 20
5746276.77584052
 10
8415912.006265724
 20
5746276.406121585
 10
8415912.05179294
 20
5746276.517149838
 10
8415912.199830609
 20
5746276.456446882
 10
8415912.154303393
 20
5746276.345418632
 10
8415914.893000261
 20
5746275.222413968
 10
8415914.938527475
 20
5746275.333442219
 10
8415915.086565146
 20
5746275.272739263
 10
8415915.041037928
 20
5746275.161711013
 10
8415915.475898579
 20
5746274.983396083
 10
8415915.521425795
 20
5746275.094424333
 10
8415915.669463464
 20
5746275.03372138
 10
8415915.623936246
 20
5746274.922693128
 10
8415918.362633112
 20
5746273.799688464
 10
8415918.408160329
 20
5746273.910716716
 10
8415918.556197997
 20
5746273.850013761
 10
8415918.510670781
 20
5746273.738985508
 10
8415918.631944254
 20
5746273.689257233
 10
8415918.67747147
 20
5746273.800285485
 10
8415918.825509137
 20
5746273.739582529
  0
LWPOLYLINE
  5
3E5
330
1F
100
AcDbEntity
  8
3 - CIENKA LINIA POMOCNICZA
100
AcDbPolyline
 90
        2
 70
     0
 43
0.0
 10
8415868.042483173
 20
5746138.218678802
 10
8415868.088008519
 20
5746138.329702154
  0
LWPOLYLINE
  5
3E6
330
1F
100
AcDbEntity
  8
3 - CIENKA LINIA POMOCNICZA
100
AcDbPolyline
 90
        3
 70
     0
 43
0.0
 10
8415867.985498184
 20
5746138.50143331
 10
8415867.939970969
 20
5746138.390405059
 10
8415868.088008636
 20
5746138.329702104
  0
LWPOLYLINE
  5
3E7
330
1F
100
AcDbEntity
  8
3 - CIENKA LINIA POMOCNICZA
100
AcDbPolyline
 90
        8
 70
     0
 43
0.0
 10
8415922.849036086
 20
5746271.960035627
 10
8415922.894563301
 20
5746272.071063877
 10
8415922.74652563
 20
5746272.131766833
 10
8415922.700998416
 20
5746272.020738583
 10
8415918.779981923
 20
5746273.628554279
 10
8415918.825509137
 20
5746273.739582529
 10
8415918.67747147
 20
5746273.800285485
 10
8415918.631944254
 20
5746273.689257233
  0
LWPOLYLINE
  5
3E8
330
1F
100
AcDbEntity
  8
3 - CIENKA LINIA POMOCNICZA
100
AcDbPolyline
 90
        7
 70
     0
 43
0.0
 10
8415911.029414255
 20
5746276.538789825
 10
8415930.264823797
 20
5746268.651548438
 10
8415874.0715775
 20
5746131.611794095
 10
8415866.826581117
 20
5746134.582610189
 10
8415868.492260949
 20
5746138.644741266
 10
8415856.501988759
 20
5746143.561522186
 10
8415911.029416777
 20
5746276.538779849
  0
LWPOLYLINE
  5
3E9
330
1F
100
AcDbEntity
  8
3 - CIENKA LINIA POMOCNICZA
100
AcDbPolyline
 90
        5
 70
     0
 43
0.0
 10
8415855.828815155
 20
5746143.226795835
 10
8415910.757438689
 20
5746277.182472063
 10
8415930.909068741
 20
5746268.919281343
 10
8415875.980424392
 20
5746134.963719941
 10
8415875.758426054
 20
5746135.054750636
  0
LWPOLYLINE
  5
3EA
330
1F
100
AcDbEntity
  8
3 - CIENKA LINIA POMOCNICZA
100
AcDbPolyline
 90
        2
 70
     0
 43
0.0
 10
8415855.828852505
 20
5746143.226886925
 10
8415868.042483173
 20
5746138.218678802
  0
LINE
  5
3EB
330
1F
100
AcDbEntity
  8
3 - CIENKA LINIA POMOCNICZA
100
AcDbLine
 10
8415753.418165886
 20
5746007.259854406
 30
0.0
 11
8415753.463693151
 21
5746007.370882637
 31
0.0
  0
LINE
  5
3EC
330
1F
100
AcDbEntity
  8
3 - CIENKA LINIA POMOCNICZA
100
AcDbLine
 10
8415753.463693151
 20
5746007.370882637
 30
0.0
 11
8415753.379433123
 21
5746007.405433566
 31
0.0
  0
LINE
  5
3ED
330
1F
100
AcDbEntity
  8
3 - CIENKA LINIA POMOCNICZA
100
AcDbLine
 10
8415753.379433123
 20
5746007.405433566
 30
0.0
 11
8415753.333905861
 21
5746007.294405335
 31
0.0
  0
LINE
  5
3EE
330
1F
100
AcDbEntity
  8
3 - CIENKA LINIA POMOCNICZA
100
AcDbLine
 10
8415753.333905861
 20
5746007.294405335
 30
0.0
 11
8415753.185868219
 21
5746007.355108355
 31
0.0
  0
LINE
  5
3EF
330
1F
100
AcDbEntity
  8
3 - CIENKA LINIA POMOCNICZA
100
AcDbLine
 10
8415753.185868219
 20
5746007.355108355
 30
0.0
 11
8415753.231395481
 21
5746007.466136585
 31
0.0
  0
LINE
  5
3F0
330
1F
100
AcDbEntity
  8
3 - CIENKA LINIA POMOCNICZA
100
AcDbLine
 10
8415753.231395481
 20
5746007.466136585
 30
0.0
 11
8415750.492699103
 21
5746008.589142438
 31
0.0
  0
LINE
  5
3F1
330
1F
100
AcDbEntity
  8
3 - CIENKA LINIA POMOCNICZA
100
AcDbLine
 10
8415750.492699103
 20
5746008.589142438
 30
0.0
 11
8415750.447171841
 21
5746008.478114207
 31
0.0
  0
LINE
  5
3F2
330
1F
100
AcDbEntity
  8
3 - CIENKA LINIA POMOCNICZA
100
AcDbLine
 10
8415750.447171841
 20
5746008.478114207
 30
0.0
 11
8415750.299134199
 21
5746008.538817228
 31
0.0
  0
LINE
  5
3F3
330
1F
100
AcDbEntity
  8
3 - CIENKA LINIA POMOCNICZA
100
AcDbLine
 10
8415750.299134199
 20
5746008.538817228
 30
0.0
 11
8415750.344661461
 21
5746008.649845457
 31
0.0
  0
LINE
  5
3F4
330
1F
100
AcDbEntity
  8
3 - CIENKA LINIA POMOCNICZA
100
AcDbLine
 10
8415750.344661461
 20
5746008.649845457
 30
0.0
 11
8415749.872791476
 21
5746008.843336332
 31
0.0
  0
LINE
  5
3F5
330
1F
100
AcDbEntity
  8
3 - CIENKA LINIA POMOCNICZA
100
AcDbLine
 10
8415749.872791476
 20
5746008.843336332
 30
0.0
 11
8415749.827264212
 21
5746008.732308101
 31
0.0
  0
LINE
  5
3F6
330
1F
100
AcDbEntity
  8
3 - CIENKA LINIA POMOCNICZA
100
AcDbLine
 10
8415749.827264212
 20
5746008.732308101
 30
0.0
 11
8415749.679226573
 21
5746008.793011119
 31
0.0
  0
LINE
  5
3F7
330
1F
100
AcDbEntity
  8
3 - CIENKA LINIA POMOCNICZA
100
AcDbLine
 10
8415749.679226573
 20
5746008.793011119
 30
0.0
 11
8415749.724753837
 21
5746008.90403935
 31
0.0
  0
LINE
  5
3F8
330
1F
100
AcDbEntity
  8
3 - CIENKA LINIA POMOCNICZA
100
AcDbLine
 10
8415749.724753837
 20
5746008.90403935
 30
0.0
 11
8415746.986057456
 21
5746010.027045205
 31
0.0
  0
LINE
  5
3F9
330
1F
100
AcDbEntity
  8
3 - CIENKA LINIA POMOCNICZA
100
AcDbLine
 10
8415746.986057456
 20
5746010.027045205
 30
0.0
 11
8415746.940530192
 21
5746009.916016972
 31
0.0
  0
LINE
  5
3FA
330
1F
100
AcDbEntity
  8
3 - CIENKA LINIA POMOCNICZA
100
AcDbLine
 10
8415746.940530192
 20
5746009.916016972
 30
0.0
 11
8415746.79249255
 21
5746009.976719991
 31
0.0
  0
LINE
  5
3FB
330
1F
100
AcDbEntity
  8
3 - CIENKA LINIA POMOCNICZA
100
AcDbLine
 10
8415746.79249255
 20
5746009.976719991
 30
0.0
 11
8415746.838019813
 21
5746010.087748222
 31
0.0
  0
LINE
  5
3FC
330
1F
100
AcDbEntity
  8
3 - CIENKA LINIA POMOCNICZA
100
AcDbLine
 10
8415746.838019813
 20
5746010.087748222
 30
0.0
 11
8415745.936378053
 21
5746010.457467549
 31
0.0
  0
LINE
  5
3FD
330
1F
100
AcDbEntity
  8
3 - CIENKA LINIA POMOCNICZA
100
AcDbLine
 10
8415745.936378053
 20
5746010.457467549
 30
0.0
 11
8415745.890850788
 21
5746010.346439318
 31
0.0
  0
LINE
  5
3FE
330
1F
100
AcDbEntity
  8
3 - CIENKA LINIA POMOCNICZA
100
AcDbLine
 10
8415745.890850788
 20
5746010.346439318
 30
0.0
 11
8415745.742813147
 21
5746010.407142336
 31
0.0
  0
LINE
  5
3FF
330
1F
100
AcDbEntity
  8
3 - CIENKA LINIA POMOCNICZA
100
AcDbLine
 10
8415745.742813147
 20
5746010.407142336
 30
0.0
 11
8415745.78834041
 21
5746010.518170568
 31
0.0
  0
LINE
  5
400
330
1F
100
AcDbEntity
  8
3 - CIENKA LINIA POMOCNICZA
100
AcDbLine
 10
8415745.78834041
 20
5746010.518170568
 30
0.0
 11
8415745.718483931
 21
5746010.546815304
 31
0.0
  0
LINE
  5
401
330
1F
100
AcDbEntity
  8
3 - CIENKA LINIA POMOCNICZA
100
AcDbLine
 10
8415745.718483931
 20
5746010.546815304
 30
0.0
 11
8415745.684524329
 21
5746010.463997359
 31
0.0
  0
LINE
  5
402
330
1F
100
AcDbEntity
  8
3 - CIENKA LINIA POMOCNICZA
100
AcDbLine
 10
8415745.684524329
 20
5746010.463997359
 30
0.0
 11
8415745.573496097
 21
5746010.509524624
 31
0.0
  0
LINE
  5
403
330
1F
100
AcDbEntity
  8
3 - CIENKA LINIA POMOCNICZA
100
AcDbLine
 10
8415745.573496097
 20
5746010.509524624
 30
0.0
 11
8415745.65696275
 21
5746010.713076382
 31
0.0
  0
LINE
  5
404
330
1F
100
AcDbEntity
  8
3 - CIENKA LINIA POMOCNICZA
100
AcDbLine
 10
8415745.65696275
 20
5746010.713076382
 30
0.0
 11
8415745.76799098
 21
5746010.667549118
 31
0.0
  0
LINE
  5
405
330
1F
100
AcDbEntity
  8
3 - CIENKA LINIA POMOCNICZA
100
AcDbLine
 10
8415745.76799098
 20
5746010.667549118
 30
0.0
 11
8415746.822705937
 21
5746013.23970315
 31
0.0
  0
LINE
  5
406
330
1F
100
AcDbEntity
  8
3 - CIENKA LINIA POMOCNICZA
100
AcDbLine
 10
8415746.822705937
 20
5746013.23970315
 30
0.0
 11
8415746.711677705
 21
5746013.285230413
 31
0.0
  0
LINE
  5
407
330
1F
100
AcDbEntity
  8
3 - CIENKA LINIA POMOCNICZA
100
AcDbLine
 10
8415746.711677705
 20
5746013.285230413
 30
0.0
 11
8415746.795144357
 21
5746013.488782172
 31
0.0
  0
LINE
  5
408
330
1F
100
AcDbEntity
  8
3 - CIENKA LINIA POMOCNICZA
100
AcDbLine
 10
8415746.795144357
 20
5746013.488782172
 30
0.0
 11
8415746.906172588
 21
5746013.443254907
 31
0.0
  0
LINE
  5
409
330
1F
100
AcDbEntity
  8
3 - CIENKA LINIA POMOCNICZA
100
AcDbLine
 10
8415746.906172588
 20
5746013.443254907
 30
0.0
 11
8415747.960887546
 21
5746016.015408939
 31
0.0
  0
LINE
  5
40A
330
1F
100
AcDbEntity
  8
3 - CIENKA LINIA POMOCNICZA
100
AcDbLine
 10
8415747.960887546
 20
5746016.015408939
 30
0.0
 11
8415747.849859315
 21
5746016.060936202
 31
0.0
  0
LINE
  5
40B
330
1F
100
AcDbEntity
  8
3 - CIENKA LINIA POMOCNICZA
100
AcDbLine
 10
8415747.849859315
 20
5746016.060936202
 30
0.0
 11
8415747.933325965
 21
5746016.264487961
 31
0.0
  0
LINE
  5
40C
330
1F
100
AcDbEntity
  8
3 - CIENKA LINIA POMOCNICZA
100
AcDbLine
 10
8415747.933325965
 20
5746016.264487961
 30
0.0
 11
8415748.044354197
 21
5746016.218960696
 31
0.0
  0
LINE
  5
40D
330
1F
100
AcDbEntity
  8
3 - CIENKA LINIA POMOCNICZA
100
AcDbLine
 10
8415748.044354197
 20
5746016.218960696
 30
0.0
 11
8415749.099069154
 21
5746018.791114726
 31
0.0
  0
LINE
  5
40E
330
1F
100
AcDbEntity
  8
3 - CIENKA LINIA POMOCNICZA
100
AcDbLine
 10
8415749.099069154
 20
5746018.791114726
 30
0.0
 11
8415748.988040922
 21
5746018.836641991
 31
0.0
  0
LINE
  5
40F
330
1F
100
AcDbEntity
  8
3 - CIENKA LINIA POMOCNICZA
100
AcDbLine
 10
8415748.988040922
 20
5746018.836641991
 30
0.0
 11
8415749.071507573
 21
5746019.040193748
 31
0.0
  0
LINE
  5
410
330
1F
100
AcDbEntity
  8
3 - CIENKA LINIA POMOCNICZA
100
AcDbLine
 10
8415749.071507573
 20
5746019.040193748
 30
0.0
 11
8415749.182535805
 21
5746018.994666484
 31
0.0
  0
LINE
  5
411
330
1F
100
AcDbEntity
  8
3 - CIENKA LINIA POMOCNICZA
100
AcDbLine
 10
8415749.182535805
 20
5746018.994666484
 30
0.0
 11
8415750.237250762
 21
5746021.566820515
 31
0.0
  0
LINE
  5
412
330
1F
100
AcDbEntity
  8
3 - CIENKA LINIA POMOCNICZA
100
AcDbLine
 10
8415750.237250762
 20
5746021.566820515
 30
0.0
 11
8415750.12622253
 21
5746021.612347781
 31
0.0
  0
LINE
  5
413
330
1F
100
AcDbEntity
  8
3 - CIENKA LINIA POMOCNICZA
100
AcDbLine
 10
8415750.12622253
 20
5746021.612347781
 30
0.0
 11
8415750.20968918
 21
5746021.815899539
 31
0.0
  0
LINE
  5
414
330
1F
100
AcDbEntity
  8
3 - CIENKA LINIA POMOCNICZA
100
AcDbLine
 10
8415750.20968918
 20
5746021.815899539
 30
0.0
 11
8415750.320717414
 21
5746021.770372274
 31
0.0
  0
LINE
  5
415
330
1F
100
AcDbEntity
  8
3 - CIENKA LINIA POMOCNICZA
100
AcDbLine
 10
8415750.320717414
 20
5746021.770372274
 30
0.0
 11
8415751.375432369
 21
5746024.342526304
 31
0.0
  0
LINE
  5
416
330
1F
100
AcDbEntity
  8
3 - CIENKA LINIA POMOCNICZA
100
AcDbLine
 10
8415751.375432369
 20
5746024.342526304
 30
0.0
 11
8415751.264404139
 21
5746024.388053569
 31
0.0
  0
LINE
  5
417
330
1F
100
AcDbEntity
  8
3 - CIENKA LINIA POMOCNICZA
100
AcDbLine
 10
8415751.264404139
 20
5746024.388053569
 30
0.0
 11
8415751.34787079
 21
5746024.591605326
 31
0.0
  0
LINE
  5
418
330
1F
100
AcDbEntity
  8
3 - CIENKA LINIA POMOCNICZA
100
AcDbLine
 10
8415751.34787079
 20
5746024.591605326
 30
0.0
 11
8415751.458899022
 21
5746024.546078063
 31
0.0
  0
LINE
  5
419
330
1F
100
AcDbEntity
  8
3 - CIENKA LINIA POMOCNICZA
100
AcDbLine
 10
8415751.458899022
 20
5746024.546078063
 30
0.0
 11
8415752.513613979
 21
5746027.118232094
 31
0.0
  0
LINE
  5
41A
330
1F
100
AcDbEntity
  8
3 - CIENKA LINIA POMOCNICZA
100
AcDbLine
 10
8415752.513613979
 20
5746027.118232094
 30
0.0
 11
8415752.402585747
 21
5746027.163759359
 31
0.0
  0
LINE
  5
41B
330
1F
100
AcDbEntity
  8
3 - CIENKA LINIA POMOCNICZA
100
AcDbLine
 10
8415752.402585747
 20
5746027.163759359
 30
0.0
 11
8415752.486052397
 21
5746027.367311115
 31
0.0
  0
LINE
  5
41C
330
1F
100
AcDbEntity
  8
3 - CIENKA LINIA POMOCNICZA
100
AcDbLine
 10
8415752.486052397
 20
5746027.367311115
 30
0.0
 11
8415752.597080629
 21
5746027.321783851
 31
0.0
  0
LINE
  5
41D
330
1F
100
AcDbEntity
  8
3 - CIENKA LINIA POMOCNICZA
100
AcDbLine
 10
8415752.597080629
 20
5746027.321783851
 30
0.0
 11
8415753.651795586
 21
5746029.893937883
 31
0.0
  0
LINE
  5
41E
330
1F
100
AcDbEntity
  8
3 - CIENKA LINIA POMOCNICZA
100
AcDbLine
 10
8415753.651795586
 20
5746029.893937883
 30
0.0
 11
8415753.540767354
 21
5746029.939465147
 31
0.0
  0
LINE
  5
41F
330
1F
100
AcDbEntity
  8
3 - CIENKA LINIA POMOCNICZA
100
AcDbLine
 10
8415753.540767354
 20
5746029.939465147
 30
0.0
 11
8415753.624234007
 21
5746030.143016906
 31
0.0
  0
LINE
  5
420
330
1F
100
AcDbEntity
  8
3 - CIENKA LINIA POMOCNICZA
100
AcDbLine
 10
8415753.624234007
 20
5746030.143016906
 30
0.0
 11
8415753.735262237
 21
5746030.097489641
 31
0.0
  0
LINE
  5
421
330
1F
100
AcDbEntity
  8
3 - CIENKA LINIA POMOCNICZA
100
AcDbLine
 10
8415753.735262237
 20
5746030.097489641
 30
0.0
 11
8415754.789977196
 21
5746032.669643672
 31
0.0
  0
LINE
  5
422
330
1F
100
AcDbEntity
  8
3 - CIENKA LINIA POMOCNICZA
100
AcDbLine
 10
8415754.789977196
 20
5746032.669643672
 30
0.0
 11
8415754.678948962
 21
5746032.715170936
 31
0.0
  0
LINE
  5
423
330
1F
100
AcDbEntity
  8
3 - CIENKA LINIA POMOCNICZA
100
AcDbLine
 10
8415754.678948962
 20
5746032.715170936
 30
0.0
 11
8415754.762415614
 21
5746032.918722694
 31
0.0
  0
LINE
  5
424
330
1F
100
AcDbEntity
  8
3 - CIENKA LINIA POMOCNICZA
100
AcDbLine
 10
8415754.762415614
 20
5746032.918722694
 30
0.0
 11
8415754.873443844
 21
5746032.873195429
 31
0.0
  0
LINE
  5
425
330
1F
100
AcDbEntity
  8
3 - CIENKA LINIA POMOCNICZA
100
AcDbLine
 10
8415754.873443844
 20
5746032.873195429
 30
0.0
 11
8415755.928158803
 21
5746035.445349462
 31
0.0
  0
LINE
  5
426
330
1F
100
AcDbEntity
  8
3 - CIENKA LINIA POMOCNICZA
100
AcDbLine
 10
8415755.928158803
 20
5746035.445349462
 30
0.0
 11
8415755.817130571
 21
5746035.490876725
 31
0.0
  0
LINE
  5
427
330
1F
100
AcDbEntity
  8
3 - CIENKA LINIA POMOCNICZA
100
AcDbLine
 10
8415755.817130571
 20
5746035.490876725
 30
0.0
 11
8415755.900597222
 21
5746035.694428481
 31
0.0
  0
LINE
  5
428
330
1F
100
AcDbEntity
  8
3 - CIENKA LINIA POMOCNICZA
100
AcDbLine
 10
8415755.900597222
 20
5746035.694428481
 30
0.0
 11
8415756.011625454
 21
5746035.648901218
 31
0.0
  0
LINE
  5
429
330
1F
100
AcDbEntity
  8
3 - CIENKA LINIA POMOCNICZA
100
AcDbLine
 10
8415756.011625454
 20
5746035.648901218
 30
0.0
 11
8415757.066340411
 21
5746038.22105525
 31
0.0
  0
LINE
  5
42A
330
1F
100
AcDbEntity
  8
3 - CIENKA LINIA POMOCNICZA
100
AcDbLine
 10
8415757.066340411
 20
5746038.22105525
 30
0.0
 11
8415756.955312179
 21
5746038.266582514
 31
0.0
  0
LINE
  5
42B
330
1F
100
AcDbEntity
  8
3 - CIENKA LINIA POMOCNICZA
100
AcDbLine
 10
8415756.955312179
 20
5746038.266582514
 30
0.0
 11
8415757.03877883
 21
5746038.470134273
 31
0.0
  0
LINE
  5
42C
330
1F
100
AcDbEntity
  8
3 - CIENKA LINIA POMOCNICZA
100
AcDbLine
 10
8415757.03877883
 20
5746038.470134273
 30
0.0
 11
8415757.149807062
 21
5746038.424607007
 31
0.0
  0
LINE
  5
42D
330
1F
100
AcDbEntity
  8
3 - CIENKA LINIA POMOCNICZA
100
AcDbLine
 10
8415757.149807062
 20
5746038.424607007
 30
0.0
 11
8415758.204522019
 21
5746040.996761037
 31
0.0
  0
LINE
  5
42E
330
1F
100
AcDbEntity
  8
3 - CIENKA LINIA POMOCNICZA
100
AcDbLine
 10
8415758.204522019
 20
5746040.996761037
 30
0.0
 11
8415758.093493789
 21
5746041.042288302
 31
0.0
  0
LINE
  5
42F
330
1F
100
AcDbEntity
  8
3 - CIENKA LINIA POMOCNICZA
100
AcDbLine
 10
8415758.093493789
 20
5746041.042288302
 30
0.0
 11
8415758.176960439
 21
5746041.24584006
 31
0.0
  0
LINE
  5
430
330
1F
100
AcDbEntity
  8
3 - CIENKA LINIA POMOCNICZA
100
AcDbLine
 10
8415758.176960439
 20
5746041.24584006
 30
0.0
 11
8415758.287988671
 21
5746041.200312796
 31
0.0
  0
LINE
  5
431
330
1F
100
AcDbEntity
  8
3 - CIENKA LINIA POMOCNICZA
100
AcDbLine
 10
8415758.287988671
 20
5746041.200312796
 30
0.0
 11
8415759.342703628
 21
5746043.772466828
 31
0.0
  0
LINE
  5
432
330
1F
100
AcDbEntity
  8
3 - CIENKA LINIA POMOCNICZA
100
AcDbLine
 10
8415759.342703628
 20
5746043.772466828
 30
0.0
 11
8415759.231675396
 21
5746043.817994093
 31
0.0
  0
LINE
  5
433
330
1F
100
AcDbEntity
  8
3 - CIENKA LINIA POMOCNICZA
100
AcDbLine
 10
8415759.231675396
 20
5746043.817994093
 30
0.0
 11
8415759.315142047
 21
5746044.021545849
 31
0.0
  0
LINE
  5
434
330
1F
100
AcDbEntity
  8
3 - CIENKA LINIA POMOCNICZA
100
AcDbLine
 10
8415759.315142047
 20
5746044.021545849
 30
0.0
 11
8415759.426170279
 21
5746043.976018584
 31
0.0
  0
LINE
  5
435
330
1F
100
AcDbEntity
  8
3 - CIENKA LINIA POMOCNICZA
100
AcDbLine
 10
8415759.426170279
 20
5746043.976018584
 30
0.0
 11
8415760.480885237
 21
5746046.548172617
 31
0.0
  0
LINE
  5
436
330
1F
100
AcDbEntity
  8
3 - CIENKA LINIA POMOCNICZA
100
AcDbLine
 10
8415760.480885237
 20
5746046.548172617
 30
0.0
 11
8415760.369857006
 21
5746046.593699881
 31
0.0
  0
LINE
  5
437
330
1F
100
AcDbEntity
  8
3 - CIENKA LINIA POMOCNICZA
100
AcDbLine
 10
8415760.369857006
 20
5746046.593699881
 30
0.0
 11
8415760.453323654
 21
5746046.797251639
 31
0.0
  0
LINE
  5
438
330
1F
100
AcDbEntity
  8
3 - CIENKA LINIA POMOCNICZA
100
AcDbLine
 10
8415760.453323654
 20
5746046.797251639
 30
0.0
 11
8415760.564351886
 21
5746046.751724374
 31
0.0
  0
LINE
  5
439
330
1F
100
AcDbEntity
  8
3 - CIENKA LINIA POMOCNICZA
100
AcDbLine
 10
8415760.564351886
 20
5746046.751724374
 30
0.0
 11
8415761.619066845
 21
5746049.323878404
 31
0.0
  0
LINE
  5
43A
330
1F
100
AcDbEntity
  8
3 - CIENKA LINIA POMOCNICZA
100
AcDbLine
 10
8415761.619066845
 20
5746049.323878404
 30
0.0
 11
8415761.508038613
 21
5746049.369405669
 31
0.0
  0
LINE
  5
43B
330
1F
100
AcDbEntity
  8
3 - CIENKA LINIA POMOCNICZA
100
AcDbLine
 10
8415761.508038613
 20
5746049.369405669
 30
0.0
 11
8415761.591505264
 21
5746049.572957428
 31
0.0
  0
LINE
  5
43C
330
1F
100
AcDbEntity
  8
3 - CIENKA LINIA POMOCNICZA
100
AcDbLine
 10
8415761.591505264
 20
5746049.572957428
 30
0.0
 11
8415761.702533494
 21
5746049.527430162
 31
0.0
  0
LINE
  5
43D
330
1F
100
AcDbEntity
  8
3 - CIENKA LINIA POMOCNICZA
100
AcDbLine
 10
8415761.702533494
 20
5746049.527430162
 30
0.0
 11
8415762.757248455
 21
5746052.099584195
 31
0.0
  0
LINE
  5
43E
330
1F
100
AcDbEntity
  8
3 - CIENKA LINIA POMOCNICZA
100
AcDbLine
 10
8415762.757248455
 20
5746052.099584195
 30
0.0
 11
8415762.646220223
 21
5746052.145111459
 31
0.0
  0
LINE
  5
43F
330
1F
100
AcDbEntity
  8
3 - CIENKA LINIA POMOCNICZA
100
AcDbLine
 10
8415762.646220223
 20
5746052.145111459
 30
0.0
 11
8415762.729686873
 21
5746052.348663218
 31
0.0
  0
LINE
  5
440
330
1F
100
AcDbEntity
  8
3 - CIENKA LINIA POMOCNICZA
100
AcDbLine
 10
8415762.729686873
 20
5746052.348663218
 30
0.0
 11
8415762.840715105
 21
5746052.303135953
 31
0.0
  0
LINE
  5
441
330
1F
100
AcDbEntity
  8
3 - CIENKA LINIA POMOCNICZA
100
AcDbLine
 10
8415762.840715105
 20
5746052.303135953
 30
0.0
 11
8415763.895430062
 21
5746054.875289983
 31
0.0
  0
LINE
  5
442
330
1F
100
AcDbEntity
  8
3 - CIENKA LINIA POMOCNICZA
100
AcDbLine
 10
8415763.895430062
 20
5746054.875289983
 30
0.0
 11
8415763.78440183
 21
5746054.920817248
 31
0.0
  0
LINE
  5
443
330
1F
100
AcDbEntity
  8
3 - CIENKA LINIA POMOCNICZA
100
AcDbLine
 10
8415763.78440183
 20
5746054.920817248
 30
0.0
 11
8415763.867868481
 21
5746055.124369005
 31
0.0
  0
LINE
  5
444
330
1F
100
AcDbEntity
  8
3 - CIENKA LINIA POMOCNICZA
100
AcDbLine
 10
8415763.867868481
 20
5746055.124369005
 30
0.0
 11
8415763.978896713
 21
5746055.078841741
 31
0.0
  0
LINE
  5
445
330
1F
100
AcDbEntity
  8
3 - CIENKA LINIA POMOCNICZA
100
AcDbLine
 10
8415763.978896713
 20
5746055.078841741
 30
0.0
 11
8415765.03361167
 21
5746057.650995772
 31
0.0
  0
LINE
  5
446
330
1F
100
AcDbEntity
  8
3 - CIENKA LINIA POMOCNICZA
100
AcDbLine
 10
8415765.03361167
 20
5746057.650995772
 30
0.0
 11
8415764.92258344
 21
5746057.696523036
 31
0.0
  0
LINE
  5
447
330
1F
100
AcDbEntity
  8
3 - CIENKA LINIA POMOCNICZA
100
AcDbLine
 10
8415764.92258344
 20
5746057.696523036
 30
0.0
 11
8415765.00605009
 21
5746057.900074794
 31
0.0
  0
LINE
  5
448
330
1F
100
AcDbEntity
  8
3 - CIENKA LINIA POMOCNICZA
100
AcDbLine
 10
8415765.00605009
 20
5746057.900074794
 30
0.0
 11
8415765.117078322
 21
5746057.85454753
 31
0.0
  0
LINE
  5
449
330
1F
100
AcDbEntity
  8
3 - CIENKA LINIA POMOCNICZA
100
AcDbLine
 10
8415765.117078322
 20
5746057.85454753
 30
0.0
 11
8415766.171793277
 21
5746060.426701562
 31
0.0
  0
LINE
  5
44A
330
1F
100
AcDbEntity
  8
3 - CIENKA LINIA POMOCNICZA
100
AcDbLine
 10
8415766.171793277
 20
5746060.426701562
 30
0.0
 11
8415766.060765047
 21
5746060.472228825
 31
0.0
  0
LINE
  5
44B
330
1F
100
AcDbEntity
  8
3 - CIENKA LINIA POMOCNICZA
100
AcDbLine
 10
8415766.060765047
 20
5746060.472228825
 30
0.0
 11
8415766.144231698
 21
5746060.675780584
 31
0.0
  0
LINE
  5
44C
330
1F
100
AcDbEntity
  8
3 - CIENKA LINIA POMOCNICZA
100
AcDbLine
 10
8415766.144231698
 20
5746060.675780584
 30
0.0
 11
8415766.25525993
 21
5746060.630253319
 31
0.0
  0
LINE
  5
44D
330
1F
100
AcDbEntity
  8
3 - CIENKA LINIA POMOCNICZA
100
AcDbLine
 10
8415766.25525993
 20
5746060.630253319
 30
0.0
 11
8415767.309974887
 21
5746063.20240735
 31
0.0
  0
LINE
  5
44E
330
1F
100
AcDbEntity
  8
3 - CIENKA LINIA POMOCNICZA
100
AcDbLine
 10
8415767.309974887
 20
5746063.20240735
 30
0.0
 11
8415767.198946655
 21
5746063.247934614
 31
0.0
  0
LINE
  5
44F
330
1F
100
AcDbEntity
  8
3 - CIENKA LINIA POMOCNICZA
100
AcDbLine
 10
8415767.198946655
 20
5746063.247934614
 30
0.0
 11
8415767.282413305
 21
5746063.451486373
 31
0.0
  0
LINE
  5
450
330
1F
100
AcDbEntity
  8
3 - CIENKA LINIA POMOCNICZA
100
AcDbLine
 10
8415767.282413305
 20
5746063.451486373
 30
0.0
 11
8415767.393441537
 21
5746063.405959108
 31
0.0
  0
LINE
  5
451
330
1F
100
AcDbEntity
  8
3 - CIENKA LINIA POMOCNICZA
100
AcDbLine
 10
8415767.393441537
 20
5746063.405959108
 30
0.0
 11
8415768.448156494
 21
5746065.978113137
 31
0.0
  0
LINE
  5
452
330
1F
100
AcDbEntity
  8
3 - CIENKA LINIA POMOCNICZA
100
AcDbLine
 10
8415768.448156494
 20
5746065.978113137
 30
0.0
 11
8415768.337128262
 21
5746066.023640403
 31
0.0
  0
LINE
  5
453
330
1F
100
AcDbEntity
  8
3 - CIENKA LINIA POMOCNICZA
100
AcDbLine
 10
8415768.337128262
 20
5746066.023640403
 30
0.0
 11
8415768.420594915
 21
5746066.227192161
 31
0.0
  0
LINE
  5
454
330
1F
100
AcDbEntity
  8
3 - CIENKA LINIA POMOCNICZA
100
AcDbLine
 10
8415768.420594915
 20
5746066.227192161
 30
0.0
 11
8415768.531623145
 21
5746066.181664896
 31
0.0
  0
LINE
  5
455
330
1F
100
AcDbEntity
  8
3 - CIENKA LINIA POMOCNICZA
100
AcDbLine
 10
8415768.531623145
 20
5746066.181664896
 30
0.0
 11
8415769.586338104
 21
5746068.753818929
 31
0.0
  0
LINE
  5
456
330
1F
100
AcDbEntity
  8
3 - CIENKA LINIA POMOCNICZA
100
AcDbLine
 10
8415769.586338104
 20
5746068.753818929
 30
0.0
 11
8415769.47530987
 21
5746068.799346192
 31
0.0
  0
LINE
  5
457
330
1F
100
AcDbEntity
  8
3 - CIENKA LINIA POMOCNICZA
100
AcDbLine
 10
8415769.47530987
 20
5746068.799346192
 30
0.0
 11
8415769.558776522
 21
5746069.002897951
 31
0.0
  0
LINE
  5
458
330
1F
100
AcDbEntity
  8
3 - CIENKA LINIA POMOCNICZA
100
AcDbLine
 10
8415769.558776522
 20
5746069.002897951
 30
0.0
 11
8415769.669804754
 21
5746068.957370686
 31
0.0
  0
LINE
  5
459
330
1F
100
AcDbEntity
  8
3 - CIENKA LINIA POMOCNICZA
100
AcDbLine
 10
8415769.669804754
 20
5746068.957370686
 30
0.0
 11
8415770.724519711
 21
5746071.529524717
 31
0.0
  0
LINE
  5
45A
330
1F
100
AcDbEntity
  8
3 - CIENKA LINIA POMOCNICZA
100
AcDbLine
 10
8415770.724519711
 20
5746071.529524717
 30
0.0
 11
8415770.61349148
 21
5746071.57505198
 31
0.0
  0
LINE
  5
45B
330
1F
100
AcDbEntity
  8
3 - CIENKA LINIA POMOCNICZA
100
AcDbLine
 10
8415770.61349148
 20
5746071.57505198
 30
0.0
 11
8415770.69695813
 21
5746071.778603739
 31
0.0
  0
LINE
  5
45C
330
1F
100
AcDbEntity
  8
3 - CIENKA LINIA POMOCNICZA
100
AcDbLine
 10
8415770.69695813
 20
5746071.778603739
 30
0.0
 11
8415770.807986362
 21
5746071.733076474
 31
0.0
  0
LINE
  5
45D
330
1F
100
AcDbEntity
  8
3 - CIENKA LINIA POMOCNICZA
100
AcDbLine
 10
8415770.807986362
 20
5746071.733076474
 30
0.0
 11
8415771.862701319
 21
5746074.305230505
 31
0.0
  0
LINE
  5
45E
330
1F
100
AcDbEntity
  8
3 - CIENKA LINIA POMOCNICZA
100
AcDbLine
 10
8415771.862701319
 20
5746074.305230505
 30
0.0
 11
8415771.751673087
 21
5746074.350757769
 31
0.0
  0
LINE
  5
45F
330
1F
100
AcDbEntity
  8
3 - CIENKA LINIA POMOCNICZA
100
AcDbLine
 10
8415771.751673087
 20
5746074.350757769
 30
0.0
 11
8415771.835139738
 21
5746074.554309528
 31
0.0
  0
LINE
  5
460
330
1F
100
AcDbEntity
  8
3 - CIENKA LINIA POMOCNICZA
100
AcDbLine
 10
8415771.835139738
 20
5746074.554309528
 30
0.0
 11
8415771.946167971
 21
5746074.508782263
 31
0.0
  0
LINE
  5
461
330
1F
100
AcDbEntity
  8
3 - CIENKA LINIA POMOCNICZA
100
AcDbLine
 10
8415771.946167971
 20
5746074.508782263
 30
0.0
 11
8415773.000882927
 21
5746077.080936295
 31
0.0
  0
LINE
  5
462
330
1F
100
AcDbEntity
  8
3 - CIENKA LINIA POMOCNICZA
100
AcDbLine
 10
8415773.000882927
 20
5746077.080936295
 30
0.0
 11
8415772.889854697
 21
5746077.126463559
 31
0.0
  0
LINE
  5
463
330
1F
100
AcDbEntity
  8
3 - CIENKA LINIA POMOCNICZA
100
AcDbLine
 10
8415772.889854697
 20
5746077.126463559
 30
0.0
 11
8415772.973321347
 21
5746077.330015317
 31
0.0
  0
LINE
  5
464
330
1F
100
AcDbEntity
  8
3 - CIENKA LINIA POMOCNICZA
100
AcDbLine
 10
8415772.973321347
 20
5746077.330015317
 30
0.0
 11
8415773.084349579
 21
5746077.284488053
 31
0.0
  0
LINE
  5
465
330
1F
100
AcDbEntity
  8
3 - CIENKA LINIA POMOCNICZA
100
AcDbLine
 10
8415773.084349579
 20
5746077.284488053
 30
0.0
 11
8415774.139064534
 21
5746079.856642084
 31
0.0
  0
LINE
  5
466
330
1F
100
AcDbEntity
  8
3 - CIENKA LINIA POMOCNICZA
100
AcDbLine
 10
8415774.139064534
 20
5746079.856642084
 30
0.0
 11
8415774.028036304
 21
5746079.902169348
 31
0.0
  0
LINE
  5
467
330
1F
100
AcDbEntity
  8
3 - CIENKA LINIA POMOCNICZA
100
AcDbLine
 10
8415774.028036304
 20
5746079.902169348
 30
0.0
 11
8415774.111502955
 21
5746080.105721106
 31
0.0
  0
LINE
  5
468
330
1F
100
AcDbEntity
  8
3 - CIENKA LINIA POMOCNICZA
100
AcDbLine
 10
8415774.111502955
 20
5746080.105721106
 30
0.0
 11
8415774.222531187
 21
5746080.060193841
 31
0.0
  0
LINE
  5
469
330
1F
100
AcDbEntity
  8
3 - CIENKA LINIA POMOCNICZA
100
AcDbLine
 10
8415774.222531187
 20
5746080.060193841
 30
0.0
 11
8415775.277246144
 21
5746082.632347871
 31
0.0
  0
LINE
  5
46A
330
1F
100
AcDbEntity
  8
3 - CIENKA LINIA POMOCNICZA
100
AcDbLine
 10
8415775.277246144
 20
5746082.632347871
 30
0.0
 11
8415775.166217912
 21
5746082.677875136
 31
0.0
  0
LINE
  5
46B
330
1F
100
AcDbEntity
  8
3 - CIENKA LINIA POMOCNICZA
100
AcDbLine
 10
8415775.166217912
 20
5746082.677875136
 30
0.0
 11
8415775.249684564
 21
5746082.881426893
 31
0.0
  0
LINE
  5
46C
330
1F
100
AcDbEntity
  8
3 - CIENKA LINIA POMOCNICZA
100
AcDbLine
 10
8415775.249684564
 20
5746082.881426893
 30
0.0
 11
8415775.360712794
 21
5746082.835899629
 31
0.0
  0
LINE
  5
46D
330
1F
100
AcDbEntity
  8
3 - CIENKA LINIA POMOCNICZA
100
AcDbLine
 10
8415775.360712794
 20
5746082.835899629
 30
0.0
 11
8415776.415427753
 21
5746085.408053661
 31
0.0
  0
LINE
  5
46E
330
1F
100
AcDbEntity
  8
3 - CIENKA LINIA POMOCNICZA
100
AcDbLine
 10
8415776.415427753
 20
5746085.408053661
 30
0.0
 11
8415776.304399519
 21
5746085.453580926
 31
0.0
  0
LINE
  5
46F
330
1F
100
AcDbEntity
  8
3 - CIENKA LINIA POMOCNICZA
100
AcDbLine
 10
8415776.304399519
 20
5746085.453580926
 30
0.0
 11
8415776.387866172
 21
5746085.657132685
 31
0.0
  0
LINE
  5
470
330
1F
100
AcDbEntity
  8
3 - CIENKA LINIA POMOCNICZA
100
AcDbLine
 10
8415776.387866172
 20
5746085.657132685
 30
0.0
 11
8415776.498894402
 21
5746085.611605419
 31
0.0
  0
LINE
  5
471
330
1F
100
AcDbEntity
  8
3 - CIENKA LINIA POMOCNICZA
100
AcDbLine
 10
8415776.498894402
 20
5746085.611605419
 30
0.0
 11
8415777.553609361
 21
5746088.18375945
 31
0.0
  0
LINE
  5
472
330
1F
100
AcDbEntity
  8
3 - CIENKA LINIA POMOCNICZA
100
AcDbLine
 10
8415777.553609361
 20
5746088.18375945
 30
0.0
 11
8415777.442581127
 21
5746088.229286714
 31
0.0
  0
LINE
  5
473
330
1F
100
AcDbEntity
  8
3 - CIENKA LINIA POMOCNICZA
100
AcDbLine
 10
8415777.442581127
 20
5746088.229286714
 30
0.0
 11
8415777.526047779
 21
5746088.432838472
 31
0.0
  0
LINE
  5
474
330
1F
100
AcDbEntity
  8
3 - CIENKA LINIA POMOCNICZA
100
AcDbLine
 10
8415777.526047779
 20
5746088.432838472
 30
0.0
 11
8415777.637076011
 21
5746088.387311208
 31
0.0
  0
LINE
  5
475
330
1F
100
AcDbEntity
  8
3 - CIENKA LINIA POMOCNICZA
100
AcDbLine
 10
8415777.637076011
 20
5746088.387311208
 30
0.0
 11
8415778.691790968
 21
5746090.959465239
 31
0.0
  0
LINE
  5
476
330
1F
100
AcDbEntity
  8
3 - CIENKA LINIA POMOCNICZA
100
AcDbLine
 10
8415778.691790968
 20
5746090.959465239
 30
0.0
 11
8415778.580762736
 21
5746091.004992503
 31
0.0
  0
LINE
  5
477
330
1F
100
AcDbEntity
  8
3 - CIENKA LINIA POMOCNICZA
100
AcDbLine
 10
8415778.580762736
 20
5746091.004992503
 30
0.0
 11
8415778.664229387
 21
5746091.208544261
 31
0.0
  0
LINE
  5
478
330
1F
100
AcDbEntity
  8
3 - CIENKA LINIA POMOCNICZA
100
AcDbLine
 10
8415778.664229387
 20
5746091.208544261
 30
0.0
 11
8415778.775257619
 21
5746091.163016997
 31
0.0
  0
LINE
  5
479
330
1F
100
AcDbEntity
  8
3 - CIENKA LINIA POMOCNICZA
100
AcDbLine
 10
8415778.775257619
 20
5746091.163016997
 30
0.0
 11
8415779.829972576
 21
5746093.735171029
 31
0.0
  0
LINE
  5
47A
330
1F
100
AcDbEntity
  8
3 - CIENKA LINIA POMOCNICZA
100
AcDbLine
 10
8415779.829972576
 20
5746093.735171029
 30
0.0
 11
8415779.718944346
 21
5746093.780698292
 31
0.0
  0
LINE
  5
47B
330
1F
100
AcDbEntity
  8
3 - CIENKA LINIA POMOCNICZA
100
AcDbLine
 10
8415779.718944346
 20
5746093.780698292
 30
0.0
 11
8415779.802410995
 21
5746093.984250051
 31
0.0
  0
LINE
  5
47C
330
1F
100
AcDbEntity
  8
3 - CIENKA LINIA POMOCNICZA
100
AcDbLine
 10
8415779.802410995
 20
5746093.984250051
 30
0.0
 11
8415779.913439228
 21
5746093.938722786
 31
0.0
  0
LINE
  5
47D
330
1F
100
AcDbEntity
  8
3 - CIENKA LINIA POMOCNICZA
100
AcDbLine
 10
8415779.913439228
 20
5746093.938722786
 30
0.0
 11
8415780.968154184
 21
5746096.510876816
 31
0.0
  0
LINE
  5
47E
330
1F
100
AcDbEntity
  8
3 - CIENKA LINIA POMOCNICZA
100
AcDbLine
 10
8415780.968154184
 20
5746096.510876816
 30
0.0
 11
8415780.857125954
 21
5746096.556404081
 31
0.0
  0
LINE
  5
47F
330
1F
100
AcDbEntity
  8
3 - CIENKA LINIA POMOCNICZA
100
AcDbLine
 10
8415780.857125954
 20
5746096.556404081
 30
0.0
 11
8415780.940592604
 21
5746096.75995584
 31
0.0
  0
LINE
  5
480
330
1F
100
AcDbEntity
  8
3 - CIENKA LINIA POMOCNICZA
100
AcDbLine
 10
8415780.940592604
 20
5746096.75995584
 30
0.0
 11
8415781.051620836
 21
5746096.714428574
 31
0.0
  0
LINE
  5
481
330
1F
100
AcDbEntity
  8
3 - CIENKA LINIA POMOCNICZA
100
AcDbLine
 10
8415781.051620836
 20
5746096.714428574
 30
0.0
 11
8415782.106335793
 21
5746099.286582607
 31
0.0
  0
LINE
  5
482
330
1F
100
AcDbEntity
  8
3 - CIENKA LINIA POMOCNICZA
100
AcDbLine
 10
8415782.106335793
 20
5746099.286582607
 30
0.0
 11
8415781.995307561
 21
5746099.332109871
 31
0.0
  0
LINE
  5
483
330
1F
100
AcDbEntity
  8
3 - CIENKA LINIA POMOCNICZA
100
AcDbLine
 10
8415781.995307561
 20
5746099.332109871
 30
0.0
 11
8415782.078774212
 21
5746099.535661627
 31
0.0
  0
LINE
  5
484
330
1F
100
AcDbEntity
  8
3 - CIENKA LINIA POMOCNICZA
100
AcDbLine
 10
8415782.078774212
 20
5746099.535661627
 30
0.0
 11
8415782.189802444
 21
5746099.490134363
 31
0.0
  0
LINE
  5
485
330
1F
100
AcDbEntity
  8
3 - CIENKA LINIA POMOCNICZA
100
AcDbLine
 10
8415782.189802444
 20
5746099.490134363
 30
0.0
 11
8415783.244517401
 21
5746102.062288395
 31
0.0
  0
LINE
  5
486
330
1F
100
AcDbEntity
  8
3 - CIENKA LINIA POMOCNICZA
100
AcDbLine
 10
8415783.244517401
 20
5746102.062288395
 30
0.0
 11
8415783.133489169
 21
5746102.107815659
 31
0.0
  0
LINE
  5
487
330
1F
100
AcDbEntity
  8
3 - CIENKA LINIA POMOCNICZA
100
AcDbLine
 10
8415783.133489169
 20
5746102.107815659
 30
0.0
 11
8415783.216955821
 21
5746102.311367418
 31
0.0
  0
LINE
  5
488
330
1F
100
AcDbEntity
  8
3 - CIENKA LINIA POMOCNICZA
100
AcDbLine
 10
8415783.216955821
 20
5746102.311367418
 30
0.0
 11
8415783.327984051
 21
5746102.265840153
 31
0.0
  0
LINE
  5
489
330
1F
100
AcDbEntity
  8
3 - CIENKA LINIA POMOCNICZA
100
AcDbLine
 10
8415783.327984051
 20
5746102.265840153
 30
0.0
 11
8415784.38269901
 21
5746104.837994184
 31
0.0
  0
LINE
  5
48A
330
1F
100
AcDbEntity
  8
3 - CIENKA LINIA POMOCNICZA
100
AcDbLine
 10
8415784.38269901
 20
5746104.837994184
 30
0.0
 11
8415784.271670776
 21
5746104.883521447
 31
0.0
  0
LINE
  5
48B
330
1F
100
AcDbEntity
  8
3 - CIENKA LINIA POMOCNICZA
100
AcDbLine
 10
8415784.271670776
 20
5746104.883521447
 30
0.0
 11
8415784.355137429
 21
5746105.087073206
 31
0.0
  0
LINE
  5
48C
330
1F
100
AcDbEntity
  8
3 - CIENKA LINIA POMOCNICZA
100
AcDbLine
 10
8415784.355137429
 20
5746105.087073206
 30
0.0
 11
8415784.466165659
 21
5746105.041545941
 31
0.0
  0
LINE
  5
48D
330
1F
100
AcDbEntity
  8
3 - CIENKA LINIA POMOCNICZA
100
AcDbLine
 10
8415784.466165659
 20
5746105.041545941
 30
0.0
 11
8415785.520880618
 21
5746107.613699973
 31
0.0
  0
LINE
  5
48E
330
1F
100
AcDbEntity
  8
3 - CIENKA LINIA POMOCNICZA
100
AcDbLine
 10
8415785.520880618
 20
5746107.613699973
 30
0.0
 11
8415785.409852386
 21
5746107.659227239
 31
0.0
  0
LINE
  5
48F
330
1F
100
AcDbEntity
  8
3 - CIENKA LINIA POMOCNICZA
100
AcDbLine
 10
8415785.409852386
 20
5746107.659227239
 30
0.0
 11
8415785.493319036
 21
5746107.862778995
 31
0.0
  0
LINE
  5
490
330
1F
100
AcDbEntity
  8
3 - CIENKA LINIA POMOCNICZA
100
AcDbLine
 10
8415785.493319036
 20
5746107.862778995
 30
0.0
 11
8415785.604347268
 21
5746107.817251729
 31
0.0
  0
LINE
  5
491
330
1F
100
AcDbEntity
  8
3 - CIENKA LINIA POMOCNICZA
100
AcDbLine
 10
8415785.604347268
 20
5746107.817251729
 30
0.0
 11
8415786.659062225
 21
5746110.389405762
 31
0.0
  0
LINE
  5
492
330
1F
100
AcDbEntity
  8
3 - CIENKA LINIA POMOCNICZA
100
AcDbLine
 10
8415786.659062225
 20
5746110.389405762
 30
0.0
 11
8415786.548033993
 21
5746110.434933026
 31
0.0
  0
LINE
  5
493
330
1F
100
AcDbEntity
  8
3 - CIENKA LINIA POMOCNICZA
100
AcDbLine
 10
8415786.548033993
 20
5746110.434933026
 30
0.0
 11
8415786.631500644
 21
5746110.638484784
 31
0.0
  0
LINE
  5
494
330
1F
100
AcDbEntity
  8
3 - CIENKA LINIA POMOCNICZA
100
AcDbLine
 10
8415786.631500644
 20
5746110.638484784
 30
0.0
 11
8415786.742528876
 21
5746110.59295752
 31
0.0
  0
LINE
  5
495
330
1F
100
AcDbEntity
  8
3 - CIENKA LINIA POMOCNICZA
100
AcDbLine
 10
8415786.742528876
 20
5746110.59295752
 30
0.0
 11
8415787.797243833
 21
5746113.16511155
 31
0.0
  0
LINE
  5
496
330
1F
100
AcDbEntity
  8
3 - CIENKA LINIA POMOCNICZA
100
AcDbLine
 10
8415787.797243833
 20
5746113.16511155
 30
0.0
 11
8415787.686215603
 21
5746113.210638815
 31
0.0
  0
LINE
  5
497
330
1F
100
AcDbEntity
  8
3 - CIENKA LINIA POMOCNICZA
100
AcDbLine
 10
8415787.686215603
 20
5746113.210638815
 30
0.0
 11
8415787.769682252
 21
5746113.414190573
 31
0.0
  0
LINE
  5
498
330
1F
100
AcDbEntity
  8
3 - CIENKA LINIA POMOCNICZA
100
AcDbLine
 10
8415787.769682252
 20
5746113.414190573
 30
0.0
 11
8415787.880710485
 21
5746113.368663308
 31
0.0
  0
LINE
  5
499
330
1F
100
AcDbEntity
  8
3 - CIENKA LINIA POMOCNICZA
100
AcDbLine
 10
8415787.880710485
 20
5746113.368663308
 30
0.0
 11
8415788.935425441
 21
5746115.940817341
 31
0.0
  0
LINE
  5
49A
330
1F
100
AcDbEntity
  8
3 - CIENKA LINIA POMOCNICZA
100
AcDbLine
 10
8415788.935425441
 20
5746115.940817341
 30
0.0
 11
8415788.82439721
 21
5746115.986344604
 31
0.0
  0
LINE
  5
49B
330
1F
100
AcDbEntity
  8
3 - CIENKA LINIA POMOCNICZA
100
AcDbLine
 10
8415788.82439721
 20
5746115.986344604
 30
0.0
 11
8415788.907863861
 21
5746116.189896361
 31
0.0
  0
LINE
  5
49C
330
1F
100
AcDbEntity
  8
3 - CIENKA LINIA POMOCNICZA
100
AcDbLine
 10
8415788.907863861
 20
5746116.189896361
 30
0.0
 11
8415789.018892093
 21
5746116.144369096
 31
0.0
  0
LINE
  5
49D
330
1F
100
AcDbEntity
  8
3 - CIENKA LINIA POMOCNICZA
100
AcDbLine
 10
8415789.018892093
 20
5746116.144369096
 30
0.0
 11
8415790.07360705
 21
5746118.716523128
 31
0.0
  0
LINE
  5
49E
330
1F
100
AcDbEntity
  8
3 - CIENKA LINIA POMOCNICZA
100
AcDbLine
 10
8415790.07360705
 20
5746118.716523128
 30
0.0
 11
8415789.962578818
 21
5746118.762050393
 31
0.0
  0
LINE
  5
49F
330
1F
100
AcDbEntity
  8
3 - CIENKA LINIA POMOCNICZA
100
AcDbLine
 10
8415789.962578818
 20
5746118.762050393
 30
0.0
 11
8415790.04604547
 21
5746118.965602151
 31
0.0
  0
LINE
  5
4A0
330
1F
100
AcDbEntity
  8
3 - CIENKA LINIA POMOCNICZA
100
AcDbLine
 10
8415790.04604547
 20
5746118.965602151
 30
0.0
 11
8415790.157073702
 21
5746118.920074886
 31
0.0
  0
LINE
  5
4A1
330
1F
100
AcDbEntity
  8
3 - CIENKA LINIA POMOCNICZA
100
AcDbLine
 10
8415790.157073702
 20
5746118.920074886
 30
0.0
 11
8415791.211788658
 21
5746121.492228917
 31
0.0
  0
LINE
  5
4A2
330
1F
100
AcDbEntity
  8
3 - CIENKA LINIA POMOCNICZA
100
AcDbLine
 10
8415791.211788658
 20
5746121.492228917
 30
0.0
 11
8415791.100760426
 21
5746121.537756181
 31
0.0
  0
LINE
  5
4A3
330
1F
100
AcDbEntity
  8
3 - CIENKA LINIA POMOCNICZA
100
AcDbLine
 10
8415791.100760426
 20
5746121.537756181
 30
0.0
 11
8415791.18422708
 21
5746121.741307939
 31
0.0
  0
LINE
  5
4A4
330
1F
100
AcDbEntity
  8
3 - CIENKA LINIA POMOCNICZA
100
AcDbLine
 10
8415791.18422708
 20
5746121.741307939
 30
0.0
 11
8415791.295255312
 21
5746121.695780675
 31
0.0
  0
LINE
  5
4A5
330
1F
100
AcDbEntity
  8
3 - CIENKA LINIA POMOCNICZA
100
AcDbLine
 10
8415791.295255312
 20
5746121.695780675
 30
0.0
 11
8415792.349970267
 21
5746124.267934707
 31
0.0
  0
LINE
  5
4A6
330
1F
100
AcDbEntity
  8
3 - CIENKA LINIA POMOCNICZA
100
AcDbLine
 10
8415792.349970267
 20
5746124.267934707
 30
0.0
 11
8415792.238942035
 21
5746124.313461971
 31
0.0
  0
LINE
  5
4A7
330
1F
100
AcDbEntity
  8
3 - CIENKA LINIA POMOCNICZA
100
AcDbLine
 10
8415792.238942035
 20
5746124.313461971
 30
0.0
 11
8415792.322408687
 21
5746124.517013729
 31
0.0
  0
LINE
  5
4A8
330
1F
100
AcDbEntity
  8
3 - CIENKA LINIA POMOCNICZA
100
AcDbLine
 10
8415792.322408687
 20
5746124.517013729
 30
0.0
 11
8415792.433436919
 21
5746124.471486465
 31
0.0
  0
LINE
  5
4A9
330
1F
100
AcDbEntity
  8
3 - CIENKA LINIA POMOCNICZA
100
AcDbLine
 10
8415792.433436919
 20
5746124.471486465
 30
0.0
 11
8415793.488151875
 21
5746127.043640496
 31
0.0
  0
LINE
  5
4AA
330
1F
100
AcDbEntity
  8
3 - CIENKA LINIA POMOCNICZA
100
AcDbLine
 10
8415793.488151875
 20
5746127.043640496
 30
0.0
 11
8415793.377123643
 21
5746127.089167759
 31
0.0
  0
LINE
  5
4AB
330
1F
100
AcDbEntity
  8
3 - CIENKA LINIA POMOCNICZA
100
AcDbLine
 10
8415793.377123643
 20
5746127.089167759
 30
0.0
 11
8415793.460590295
 21
5746127.292719518
 31
0.0
  0
LINE
  5
4AC
330
1F
100
AcDbEntity
  8
3 - CIENKA LINIA POMOCNICZA
100
AcDbLine
 10
8415793.460590295
 20
5746127.292719518
 30
0.0
 11
8415793.571618527
 21
5746127.247192254
 31
0.0
  0
LINE
  5
4AD
330
1F
100
AcDbEntity
  8
3 - CIENKA LINIA POMOCNICZA
100
AcDbLine
 10
8415793.571618527
 20
5746127.247192254
 30
0.0
 11
8415794.626333482
 21
5746129.819346283
 31
0.0
  0
LINE
  5
4AE
330
1F
100
AcDbEntity
  8
3 - CIENKA LINIA POMOCNICZA
100
AcDbLine
 10
8415794.626333482
 20
5746129.819346283
 30
0.0
 11
8415794.51530525
 21
5746129.864873548
 31
0.0
  0
LINE
  5
4AF
330
1F
100
AcDbEntity
  8
3 - CIENKA LINIA POMOCNICZA
100
AcDbLine
 10
8415794.51530525
 20
5746129.864873548
 30
0.0
 11
8415794.598771904
 21
5746130.068425307
 31
0.0
  0
LINE
  5
4B0
330
1F
100
AcDbEntity
  8
3 - CIENKA LINIA POMOCNICZA
100
AcDbLine
 10
8415794.598771904
 20
5746130.068425307
 30
0.0
 11
8415794.709800135
 21
5746130.022898041
 31
0.0
  0
LINE
  5
4B1
330
1F
100
AcDbEntity
  8
3 - CIENKA LINIA POMOCNICZA
100
AcDbLine
 10
8415794.709800135
 20
5746130.022898041
 30
0.0
 11
8415795.76451509
 21
5746132.595052074
 31
0.0
  0
LINE
  5
4B2
330
1F
100
AcDbEntity
  8
3 - CIENKA LINIA POMOCNICZA
100
AcDbLine
 10
8415795.76451509
 20
5746132.595052074
 30
0.0
 11
8415795.65348686
 21
5746132.640579339
 31
0.0
  0
LINE
  5
4B3
330
1F
100
AcDbEntity
  8
3 - CIENKA LINIA POMOCNICZA
100
AcDbLine
 10
8415795.65348686
 20
5746132.640579339
 30
0.0
 11
8415795.736953512
 21
5746132.844131096
 31
0.0
  0
LINE
  5
4B4
330
1F
100
AcDbEntity
  8
3 - CIENKA LINIA POMOCNICZA
100
AcDbLine
 10
8415795.736953512
 20
5746132.844131096
 30
0.0
 11
8415795.847981744
 21
5746132.798603831
 31
0.0
  0
LINE
  5
4B5
330
1F
100
AcDbEntity
  8
3 - CIENKA LINIA POMOCNICZA
100
AcDbLine
 10
8415795.847981744
 20
5746132.798603831
 30
0.0
 11
8415796.902696699
 21
5746135.370757862
 31
0.0
  0
LINE
  5
4B6
330
1F
100
AcDbEntity
  8
3 - CIENKA LINIA POMOCNICZA
100
AcDbLine
 10
8415796.902696699
 20
5746135.370757862
 30
0.0
 11
8415796.791668467
 21
5746135.416285126
 31
0.0
  0
LINE
  5
4B7
330
1F
100
AcDbEntity
  8
3 - CIENKA LINIA POMOCNICZA
100
AcDbLine
 10
8415796.791668467
 20
5746135.416285126
 30
0.0
 11
8415796.87513512
 21
5746135.619836884
 31
0.0
  0
LINE
  5
4B8
330
1F
100
AcDbEntity
  8
3 - CIENKA LINIA POMOCNICZA
100
AcDbLine
 10
8415796.87513512
 20
5746135.619836884
 30
0.0
 11
8415796.986163352
 21
5746135.57430962
 31
0.0
  0
LINE
  5
4B9
330
1F
100
AcDbEntity
  8
3 - CIENKA LINIA POMOCNICZA
100
AcDbLine
 10
8415796.986163352
 20
5746135.57430962
 30
0.0
 11
8415798.040878307
 21
5746138.146463651
 31
0.0
  0
LINE
  5
4BA
330
1F
100
AcDbEntity
  8
3 - CIENKA LINIA POMOCNICZA
100
AcDbLine
 10
8415798.040878307
 20
5746138.146463651
 30
0.0
 11
8415797.929850075
 21
5746138.191990914
 31
0.0
  0
LINE
  5
4BB
330
1F
100
AcDbEntity
  8
3 - CIENKA LINIA POMOCNICZA
100
AcDbLine
 10
8415797.929850075
 20
5746138.191990914
 30
0.0
 11
8415798.013316729
 21
5746138.395542673
 31
0.0
  0
LINE
  5
4BC
330
1F
100
AcDbEntity
  8
3 - CIENKA LINIA POMOCNICZA
100
AcDbLine
 10
8415798.013316729
 20
5746138.395542673
 30
0.0
 11
8415798.124344959
 21
5746138.350015408
 31
0.0
  0
LINE
  5
4BD
330
1F
100
AcDbEntity
  8
3 - CIENKA LINIA POMOCNICZA
100
AcDbLine
 10
8415798.124344959
 20
5746138.350015408
 30
0.0
 11
8415799.179059915
 21
5746140.92216944
 31
0.0
  0
LINE
  5
4BE
330
1F
100
AcDbEntity
  8
3 - CIENKA LINIA POMOCNICZA
100
AcDbLine
 10
8415799.179059915
 20
5746140.92216944
 30
0.0
 11
8415799.068031683
 21
5746140.967696704
 31
0.0
  0
LINE
  5
4BF
330
1F
100
AcDbEntity
  8
3 - CIENKA LINIA POMOCNICZA
100
AcDbLine
 10
8415799.068031683
 20
5746140.967696704
 30
0.0
 11
8415799.151498337
 21
5746141.171248463
 31
0.0
  0
LINE
  5
4C0
330
1F
100
AcDbEntity
  8
3 - CIENKA LINIA POMOCNICZA
100
AcDbLine
 10
8415799.151498337
 20
5746141.171248463
 30
0.0
 11
8415799.262526569
 21
5746141.125721199
 31
0.0
  0
LINE
  5
4C1
330
1F
100
AcDbEntity
  8
3 - CIENKA LINIA POMOCNICZA
100
AcDbLine
 10
8415799.262526569
 20
5746141.125721199
 30
0.0
 11
8415800.412089993
 21
5746143.929184045
 31
0.0
  0
LINE
  5
4C2
330
1F
100
AcDbEntity
  8
3 - CIENKA LINIA POMOCNICZA
100
AcDbLine
 10
8415800.412089993
 20
5746143.929184045
 30
0.0
 11
8415800.301061761
 21
5746143.974711308
 31
0.0
  0
LINE
  5
4C3
330
1F
100
AcDbEntity
  8
3 - CIENKA LINIA POMOCNICZA
100
AcDbLine
 10
8415800.301061761
 20
5746143.974711308
 30
0.0
 11
8415800.384528411
 21
5746144.178263067
 31
0.0
  0
LINE
  5
4C4
330
1F
100
AcDbEntity
  8
3 - CIENKA LINIA POMOCNICZA
100
AcDbLine
 10
8415800.384528411
 20
5746144.178263067
 30
0.0
 11
8415800.495556643
 21
5746144.132735803
 31
0.0
  0
LINE
  5
4C5
330
1F
100
AcDbEntity
  8
3 - CIENKA LINIA POMOCNICZA
100
AcDbLine
 10
8415800.495556643
 20
5746144.132735803
 30
0.0
 11
8415800.554362652
 21
5746144.276147173
 31
0.0
  0
LINE
  5
4C6
330
1F
100
AcDbEntity
  8
3 - CIENKA LINIA POMOCNICZA
100
AcDbLine
 10
8415800.554362652
 20
5746144.276147173
 30
0.0
 11
8415802.534798691
 21
5746149.10587534
 31
0.0
  0
LINE
  5
4C7
330
1F
100
AcDbEntity
  8
3 - CIENKA LINIA POMOCNICZA
100
AcDbLine
 10
8415802.534798691
 20
5746149.10587534
 30
0.0
 11
8415810.926180634
 21
5746145.665031892
 31
0.0
  0
LINE
  5
4C8
330
1F
100
AcDbEntity
  8
3 - CIENKA LINIA POMOCNICZA
100
AcDbLine
 10
8415810.926180634
 20
5746145.665031892
 30
0.0
 11
8415808.945763295
 21
5746140.835349315
 31
0.0
  0
LWPOLYLINE
  5
4C9
330
1F
100
AcDbEntity
  8
3 - CIENKA LINIA POMOCNICZA
100
AcDbPolyline
 90
      243
 70
     0
 43
0.0
 10
8415809.002710703
 20
5746140.552503439
 10
8415812.546881914
 20
5746139.099206373
 10
8415812.592409178
 20
5746139.210234604
 10
8415812.740446821
 20
5746139.149531585
 10
8415812.694919557
 20
5746139.038503354
 10
8415815.433615934
 20
5746137.9154975
 10
8415815.4791432
 20
5746138.026525731
 10
8415815.62718084
 20
5746137.965822713
 10
8415815.581653577
 20
5746137.854794481
 10
8415816.016514153
 20
5746137.676479361
 10
8415816.062041416
 20
5746137.787507592
 10
8415816.210079059
 20
5746137.726804573
 10
8415816.164551795
 20
5746137.615776342
 10
8415818.903248172
 20
5746136.492770489
 10
8415818.948775436
 20
5746136.60379872
 10
8415819.096813079
 20
5746136.543095701
 10
8415819.096813079
 20
5746136.543095701
 10
8415819.051285815
 20
5746136.43206747
 10
8415819.952927577
 20
5746136.062348143
 10
8415819.998454843
 20
5746136.173376375
 10
8415820.146492485
 20
5746136.112673355
 10
8415820.100965222
 20
5746136.001645124
 10
8415820.161243303
 20
5746135.976928022
 10
8415820.19349178
 20
5746136.055573019
 10
8415820.304520012
 20
5746136.010045754
 10
8415820.221053362
 20
5746135.806493996
 10
8415820.11002513
 20
5746135.852021261
 10
8415818.960461706
 20
5746133.048558415
 10
8415819.071489938
 20
5746133.003031151
 10
8415818.988023286
 20
5746132.799479393
 10
8415818.876995055
 20
5746132.845006656
 10
8415817.822280093
 20
5746130.272852629
 10
8415817.933308328
 20
5746130.227325362
 10
8415817.849841676
 20
5746130.023773604
 10
8415817.738813446
 20
5746130.069300868
 10
8415816.684098491
 20
5746127.497146837
 10
8415816.795126721
 20
5746127.451619572
 10
8415816.711660069
 20
5746127.248067815
 10
8415816.600631837
 20
5746127.293595081
 10
8415815.545916881
 20
5746124.721441048
 10
8415815.656945113
 20
5746124.675913783
 10
8415815.573478461
 20
5746124.472362025
 10
8415815.462450231
 20
5746124.517889291
 10
8415814.407735274
 20
5746121.94573526
 10
8415814.518763506
 20
5746121.900207994
 10
8415814.435296852
 20
5746121.696656238
 10
8415814.324268618
 20
5746121.742183502
 10
8415813.269553664
 20
5746119.17002947
 10
8415813.380581898
 20
5746119.124502205
 10
8415813.297115244
 20
5746118.920950447
 10
8415813.186087016
 20
5746118.966477712
 10
8415812.131372057
 20
5746116.394323681
 10
8415812.242400289
 20
5746116.348796418
 10
8415812.158933636
 20
5746116.145244659
 10
8415812.047905401
 20
5746116.190771926
 10
8415810.993190449
 20
5746113.618617893
 10
8415811.104218681
 20
5746113.573090629
 10
8415811.020752027
 20
5746113.36953887
 10
8415810.909723798
 20
5746113.415066134
 10
8415809.855008841
 20
5746110.842912103
 10
8415809.966037071
 20
5746110.797384838
 10
8415809.882570419
 20
5746110.593833081
 10
8415809.771542189
 20
5746110.639360344
 10
8415808.716827232
 20
5746108.067206315
 10
8415808.827855462
 20
5746108.02167905
 10
8415808.744388812
 20
5746107.818127292
 10
8415808.633360578
 20
5746107.863654558
 10
8415807.578645624
 20
5746105.291500526
 10
8415807.689673854
 20
5746105.245973263
 10
8415807.606207202
 20
5746105.042421504
 10
8415807.495178974
 20
5746105.087948769
 10
8415806.440464017
 20
5746102.515794737
 10
8415806.551492247
 20
5746102.470267471
 10
8415806.468025595
 20
5746102.266715714
 10
8415806.356997363
 20
5746102.312242978
 10
8415805.302282404
 20
5746099.740088948
 10
8415805.413310637
 20
5746099.694561684
 10
8415805.329843987
 20
5746099.491009926
 10
8415805.218815755
 20
5746099.536537189
 10
8415804.1641008
 20
5746096.964383159
 10
8415804.27512903
 20
5746096.918855895
 10
8415804.191662379
 20
5746096.715304137
 10
8415804.080634146
 20
5746096.760831402
 10
8415803.025919192
 20
5746094.188677369
 10
8415803.13694742
 20
5746094.143150105
 10
8415803.05348077
 20
5746093.939598347
 10
8415802.942452538
 20
5746093.985125611
 10
8415801.887737583
 20
5746091.412971582
 10
8415801.998765813
 20
5746091.367444316
 10
8415801.915299162
 20
5746091.163892558
 10
8415801.80427093
 20
5746091.209419823
 10
8415800.749555975
 20
5746088.637265793
 10
8415800.860584205
 20
5746088.591738529
 10
8415800.777117553
 20
5746088.388186771
 10
8415800.666089323
 20
5746088.433714034
 10
8415799.611374367
 20
5746085.861560003
 10
8415799.722402597
 20
5746085.816032738
 10
8415799.638935945
 20
5746085.612480981
 10
8415799.527907715
 20
5746085.658008245
 10
8415798.47319276
 20
5746083.085854214
 10
8415798.58422099
 20
5746083.04032695
 10
8415798.500754338
 20
5746082.836775192
 10
8415798.389726106
 20
5746082.882302456
 10
8415797.33501115
 20
5746080.310148427
 10
8415797.44603938
 20
5746080.264621162
 10
8415797.36257273
 20
5746080.061069403
 10
8415797.251544498
 20
5746080.106596669
 10
8415796.196829539
 20
5746077.534442638
 10
8415796.307857771
 20
5746077.488915371
 10
8415796.224391122
 20
5746077.285363614
 10
8415796.113362889
 20
5746077.330890877
 10
8415795.058647933
 20
5746074.758736848
 10
8415795.169676163
 20
5746074.713209583
 10
8415795.086209513
 20
5746074.509657826
 10
8415794.975181281
 20
5746074.55518509
 10
8415793.920466322
 20
5746071.983031057
 10
8415794.031494556
 20
5746071.937503793
 10
8415793.948027905
 20
5746071.733952037
 10
8415793.836999673
 20
5746071.779479301
 10
8415792.782284718
 20
5746069.20732527
 10
8415792.893312948
 20
5746069.161798005
 10
8415792.809846296
 20
5746068.958246247
 10
8415792.698818066
 20
5746069.003773511
 10
8415791.644103107
 20
5746066.431619481
 10
8415791.755131341
 20
5746066.386092216
 10
8415791.671664688
 20
5746066.182540459
 10
8415791.560636458
 20
5746066.228067722
 10
8415790.505921499
 20
5746063.655913693
 10
8415790.616949731
 20
5746063.610386427
 10
8415790.533483081
 20
5746063.40683467
 10
8415790.422454849
 20
5746063.452361935
 10
8415789.367739892
 20
5746060.880207902
 10
8415789.478768123
 20
5746060.834680638
 10
8415789.395301473
 20
5746060.63112888
 10
8415789.284273241
 20
5746060.676656145
 10
8415788.229558284
 20
5746058.104502115
 10
8415788.340586514
 20
5746058.058974849
 10
8415788.257119865
 20
5746057.855423092
 10
8415788.146091632
 20
5746057.900950356
 10
8415787.091376676
 20
5746055.328796325
 10
8415787.202404906
 20
5746055.283269059
 10
8415787.118938256
 20
5746055.079717304
 10
8415787.007910024
 20
5746055.125244567
 10
8415785.953195065
 20
5746052.553090536
 10
8415786.064223299
 20
5746052.507563272
 10
8415785.980756648
 20
5746052.304011514
 10
8415785.869728415
 20
5746052.349538778
 10
8415784.815013459
 20
5746049.777384747
 10
8415784.926041691
 20
5746049.731857483
 10
8415784.842575039
 20
5746049.528305725
 10
8415784.731546809
 20
5746049.573832989
 10
8415783.67683185
 20
5746047.001678958
 10
8415783.787860084
 20
5746046.956151693
 10
8415783.704393431
 20
5746046.752599935
 10
8415783.593365198
 20
5746046.798127202
 10
8415782.538650242
 20
5746044.22597317
 10
8415782.649678474
 20
5746044.180445904
 10
8415782.566211824
 20
5746043.976894147
 10
8415782.45518359
 20
5746044.022421413
 10
8415781.400468635
 20
5746041.450267381
 10
8415781.511496865
 20
5746041.404740117
 10
8415781.428030216
 20
5746041.201188359
 10
8415781.317001982
 20
5746041.246715622
 10
8415780.262287027
 20
5746038.674561591
 10
8415780.373315255
 20
5746038.629034326
 10
8415780.289848608
 20
5746038.425482567
 10
8415780.178820375
 20
5746038.471009833
 10
8415779.124105419
 20
5746035.898855803
 10
8415779.235133648
 20
5746035.853328538
 10
8415779.151666997
 20
5746035.64977678
 10
8415779.040638767
 20
5746035.695304044
 10
8415777.985923808
 20
5746033.123150014
 10
8415778.09695204
 20
5746033.077622749
 10
8415778.01348539
 20
5746032.874070992
 10
8415777.902457158
 20
5746032.919598256
 10
8415776.847742202
 20
5746030.347444224
 10
8415776.958770432
 20
5746030.30191696
 10
8415776.87530378
 20
5746030.098365202
 10
8415776.764275548
 20
5746030.143892467
 10
8415775.709560591
 20
5746027.571738436
 10
8415775.820588823
 20
5746027.526211171
 10
8415775.737122173
 20
5746027.322659413
 10
8415775.626093941
 20
5746027.36818668
 10
8415774.571378985
 20
5746024.796032648
 10
8415774.682407215
 20
5746024.750505383
 10
8415774.598940565
 20
5746024.546953625
 10
8415774.487912335
 20
5746024.592480889
 10
8415773.433197378
 20
5746022.020326858
 10
8415773.544225608
 20
5746021.974799592
 10
8415773.460758956
 20
5746021.771247836
 10
8415773.349730725
 20
5746021.816775099
 10
8415772.29501577
 20
5746019.244621069
 10
8415772.406043998
 20
5746019.199093804
 10
8415772.322577348
 20
5746018.995542047
 10
8415772.211549118
 20
5746019.041069311
 10
8415771.156834161
 20
5746016.468915281
 10
8415771.267862391
 20
5746016.423388016
 10
8415771.18439574
 20
5746016.219836258
 10
8415771.07336751
 20
5746016.265363523
 10
8415770.018652553
 20
5746013.69320949
 10
8415770.129680783
 20
5746013.647682226
 10
8415770.046214131
 20
5746013.444130467
 10
8415769.935185902
 20
5746013.489657732
 10
8415768.880470945
 20
5746010.917503703
 10
8415768.991499174
 20
5746010.871976437
 10
8415768.908032523
 20
5746010.668424681
 10
8415768.797004295
 20
5746010.713951944
 10
8415767.742289336
 20
5746008.141797914
 10
8415767.853317566
 20
5746008.096270649
 10
8415767.769850916
 20
5746007.892718892
 10
8415767.658822685
 20
5746007.938246155
 10
8415766.604107728
 20
5746005.366092124
 10
8415766.715135958
 20
5746005.32056486
 10
8415766.631669308
 20
5746005.117013102
 10
8415766.520641078
 20
5746005.162540366
 10
8415765.465926121
 20
5746002.590386336
 10
8415765.576954349
 20
5746002.544859071
 10
8415765.493487699
 20
5746002.341307313
 10
8415765.382459468
 20
5746002.386834577
 10
8415765.416419068
 20
5746002.469652522
 10
8415765.356140987
 20
5746002.494369624
 10
8415765.310613721
 20
5746002.383341391
 10
8415765.162576079
 20
5746002.444044412
 10
8415765.208103344
 20
5746002.555072642
 10
8415764.30646158
 20
5746002.924791969
 10
8415764.260934315
 20
5746002.813763738
 10
8415764.112896674
 20
5746002.874466758
 10
8415764.158423938
 20
5746002.985494986
 10
8415761.41972756
 20
5746004.108500841
 10
8415761.374200295
 20
5746003.997472611
 10
8415761.226162654
 20
5746004.058175629
 10
8415761.271689918
 20
5746004.169203859
 10
8415760.836829344
 20
5746004.347518977
 10
8415760.79130208
 20
5746004.236490748
 10
8415760.643264437
 20
5746004.297193767
 10
8415760.688791701
 20
5746004.408221998
 10
8415757.950095324
 20
5746005.53122785
 10
8415757.90456806
 20
5746005.420199621
 10
8415757.756530418
 20
5746005.480902639
 10
8415757.802057681
 20
5746005.59193087
 10
8415757.68078423
 20
5746005.641659199
 10
8415757.635256964
 20
5746005.530630969
 10
8415757.487219323
 20
5746005.591333989
  0
LWPOLYLINE
  5
4CA
330
1F
100
AcDbEntity
  8
3 - CIENKA LINIA POMOCNICZA
100
AcDbPolyline
 90
        2
 70
     0
 43
0.0
 10
8415808.945725901
 20
5746140.835258129
 10
8415808.900200509
 20
5746140.7242348
  0
LWPOLYLINE
  5
4CB
330
1F
100
AcDbEntity
  8
3 - CIENKA LINIA POMOCNICZA
100
AcDbPolyline
 90
        3
 70
     0
 43
0.0
 10
8415809.002710767
 20
5746140.552503598
 10
8415809.048238031
 20
5746140.66353183
 10
8415808.900200389
 20
5746140.724234847
  0
LWPOLYLINE
  5
4CC
330
1F
100
AcDbEntity
  8
3 - CIENKA LINIA POMOCNICZA
100
AcDbPolyline
 90
        8
 70
     0
 43
0.0
 10
8415753.463693151
 20
5746007.370882637
 10
8415753.418165886
 20
5746007.259854406
 10
8415753.56620353
 20
5746007.199151388
 10
8415753.61173079
 20
5746007.310179618
 10
8415757.532746587
 20
5746005.702362218
 10
8415757.487219323
 20
5746005.591333989
 10
8415757.635256964
 20
5746005.530630969
 10
8415757.68078423
 20
5746005.641659199
  0
LWPOLYLINE
  5
4CD
330
1F
100
AcDbEntity
  8
3 - CIENKA LINIA POMOCNICZA
100
AcDbPolyline
 90
        7
 70
     0
 43
0.0
 10
8415765.283312991
 20
5746002.792123306
 10
8415746.047906875
 20
5746010.679373047
 10
8415802.673721715
 20
5746148.773871181
 10
8415810.59413855
 20
5746145.526094416
 10
8415808.49594794
 20
5746140.409195861
 10
8415819.810796254
 20
5746135.769367261
 10
8415765.283310468
 20
5746002.792133282
  0
LWPOLYLINE
  5
4CE
330
1F
100
AcDbEntity
  8
3 - CIENKA LINIA POMOCNICZA
100
AcDbPolyline
 90
        5
 70
     0
 43
0.0
 10
8415820.483970003
 20
5746136.104093314
 10
8415765.555288277
 20
5746002.14844095
 10
8415745.403661818
 20
5746010.411640424
 10
8415800.332364355
 20
5746144.367177962
 10
8415800.554362652
 20
5746144.276147173
  0
LWPOLYLINE
  5
4CF
330
1F
100
AcDbEntity
  8
3 - CIENKA LINIA POMOCNICZA
100
AcDbPolyline
 90
        2
 70
     0
 43
0.0
 10
8415820.483932652
 20
5746136.104002227
 10
8415808.945725901
 20
5746140.835258129
  0
LWPOLYLINE
  5
4D0
330
1F
100
AcDbEntity
  8
3 - CIENKA LINIA POMOCNICZA
100
AcDbPolyline
 90
        2
 70
     0
 43
0.0
 10
8415908.175027531
 20
5746073.984079142
 10
8415907.635263515
 20
5746074.205410053
  0
LWPOLYLINE
  5
4D1
330
1F
100
AcDbEntity
  8
3 - CIENKA LINIA POMOCNICZA
100
AcDbPolyline
 90
        2
 70
     0
 43
0.0
 10
8415907.635263515
 20
5746074.205410053
 42
-0.8671369832638154
 10
8415907.961735795
 20
5746075.0015844
  0
LWPOLYLINE
  5
4D2
330
1F
100
AcDbEntity
  8
3 - CIENKA LINIA POMOCNICZA
100
AcDbPolyline
 90
        2
 70
     0
 43
0.0
 10
8415907.635263515
 20
5746074.205410053
 42
0.8671369832638154
 10
8415907.308791245
 20
5746073.409235683
  0
LWPOLYLINE
  5
4D3
330
1F
100
AcDbEntity
  8
3 - CIENKA LINIA POMOCNICZA
100
AcDbPolyline
 90
        2
 70
     0
 43
0.0
 10
8415820.050047797
 20
5746236.296430444
 10
8415819.510283778
 20
5746236.51776134
  0
LWPOLYLINE
  5
4D4
330
1F
100
AcDbEntity
  8
3 - CIENKA LINIA POMOCNICZA
100
AcDbPolyline
 90
        2
 70
     0
 43
0.0
 10
8415819.510283778
 20
5746236.51776134
 42
-0.8671369832638154
 10
8415819.836756062
 20
5746237.313935702
  0
LWPOLYLINE
  5
4D5
330
1F
100
AcDbEntity
  8
3 - CIENKA LINIA POMOCNICZA
100
AcDbPolyline
 90
        2
 70
     0
 43
0.0
 10
8415819.510283778
 20
5746236.51776134
 42
0.8671369832638154
 10
8415819.183811512
 20
5746235.721586977
  0
CIRCLE
  5
4D6
330
1F
100
AcDbEntity
  8
3 - CIENKA LINIA POMOCNICZA
100
AcDbCircle
 10
8415909.686356689
 20
5746073.363395338
 30
0.0
 40
1.633818894427309
  0
TEXT
  5
4D7
330
1F
100
AcDbEntity
  8
dzialka
370
    50
100
AcDbText
 39
0.5
 10
8415772.197769738
 20
5746164.641890077
 30
0.0
 40
2.5
  1
189
 41
0.6600000000000001
 72
     1
 11
8415774.120706302
 21
5746165.891890077
 31
0.0
100
AcDbText
 73
     2
  0
TEXT
  5
4D8
330
1F
100
AcDbEntity
  8
dzialka
370
    50
100
AcDbText
 39
0.5
 10
8415884.231582836
 20
5746120.686890077
 30
0.0
 40
2.5
  1
188/1
 41
0.6600000000000001
 72
     1
 11
8415887.115706302
 21
5746121.936890077
 31
0.0
100
AcDbText
 73
     2
  0
ENDSEC
  0
SECTION
  2
OBJECTS
  0
DICTIONARY
  5
C
330
0
100
AcDbDictionary
281
     1
  3
ACAD_CIP_PREVIOUS_PRODUCT_INFO
350
19E
  3
ACAD_COLOR
350
6C
  3
ACAD_DETAILVIEWSTYLE
350
1EB
  3
ACAD_GROUP
350
D
  3
ACAD_LAYOUT
350
1A
  3
ACAD_MATERIAL
350
6B
  3
ACAD_MLEADERSTYLE
350
DE
  3
ACAD_MLINESTYLE
350
17
  3
ACAD_PLOTSETTINGS
350
19
  3
ACAD_PLOTSTYLENAME
350
E
  3
ACAD_SCALELIST
350
B7
  3
ACAD_SECTIONVIEWSTYLE
350
1E9
  3
ACAD_TABLESTYLE
350
92
  3
ACAD_VISUALSTYLE
350
17F
  3
ACDB_RECOMPOSE_DATA
350
53F
  3
AcDbVariableDictionary
350
59
  0
DICTIONARY
  5
501
330
8
100
AcDbDictionary
280
     1
281
     1
  3
ACAD_XREC_ROUNDTRIP
360
502
  0
DICTIONARY
  5
FA
330
2
100
AcDbDictionary
280
     1
281
     1
  3
ACAD_LAYERSTATES
360
FB
  0
DICTIONARY
  5
4F8
330
10
100
AcDbDictionary
280
     1
281
     1
  3
ACAD_XREC_ROUNDTRIP
360
4F9
  0
DICTIONARY
  5
4FA
330
23C
100
AcDbDictionary
280
     1
281
     1
  3
ACAD_XREC_ROUNDTRIP
360
4FB
  0
DICTIONARY
  5
248
330
247
100
AcDbDictionary
280
     1
281
     1
  3
ACAD_XREC_ROUNDTRIP
360
4FC
  3
ADSK_XREC_LAYER_RECONCILED
360
249
  0
DICTIONARY
  5
4FD
330
24B
100
AcDbDictionary
280
     1
281
     1
  3
ACAD_XREC_ROUNDTRIP
360
4FE
  0
DICTIONARY
  5
23E
330
23D
100
AcDbDictionary
280
     1
281
     1
  3
ACAD_XREC_ROUNDTRIP
360
4FF
  3
ADSK_XREC_LAYER_RECONCILED
360
23F
  0
DICTIONARY
  5
244
330
243
100
AcDbDictionary
280
     1
281
     1
  3
ACAD_XREC_ROUNDTRIP
360
500
  3
ADSK_XREC_LAYER_RECONCILED
360
245
  0
DICTIONARY
  5
3CF
330
3CE
100
AcDbDictionary
280
     1
281
     1
  3
AcDbContextDataManager
360
3D1
  0
XRECORD
  5
19E
102
{ACAD_REACTORS
330
C
102
}
330
C
100
AcDbXrecord
280
     1
300
ACD
300
2013
300
ACD_F_S
  0
DICTIONARY
  5
6C
102
{ACAD_REACTORS
330
C
102
}
330
C
100
AcDbDictionary
281
     1
  0
DICTIONARY
  5
1EB
102
{ACAD_REACTORS
330
C
102
}
330
C
100
AcDbDictionary
281
     1
  3
Metric50
350
1EC
  0
DICTIONARY
  5
D
102
{ACAD_REACTORS
330
C
102
}
330
C
100
AcDbDictionary
281
     1
  0
DICTIONARY
  5
1A
102
{ACAD_REACTORS
330
C
102
}
330
C
100
AcDbDictionary
281
     1
  3
Arkusz1
350
1E0
  3
Arkusz2
350
1E4
  3
Model
350
22
  0
DICTIONARY
  5
6B
102
{ACAD_REACTORS
330
C
102
}
330
C
100
AcDbDictionary
281
     1
  3
ByBlock
350
16F
  3
ByLayer
350
167
  3
Global
350
177
  0
DICTIONARY
  5
DE
102
{ACAD_REACTORS
330
C
102
}
330
C
100
AcDbDictionary
281
     1
  3
Annotative
350
237
  3
Standard
350
E1
  0
DICTIONARY
  5
17
102
{ACAD_REACTORS
330
C
102
}
330
C
100
AcDbDictionary
281
     1
  3
Standard
350
18
  0
DICTIONARY
  5
19
102
{ACAD_REACTORS
330
C
102
}
330
C
100
AcDbDictionary
281
     1
  0
ACDBDICTIONARYWDFLT
  5
E
102
{ACAD_REACTORS
330
C
102
}
330
C
100
AcDbDictionary
281
     1
  3
Color_56
350
24A
  3
Normal
350
F
  3
Style 1
350
240
100
AcDbDictionaryWithDefault
340
F
  0
DICTIONARY
  5
B7
102
{ACAD_REACTORS
330
C
102
}
330
C
100
AcDbDictionary
281
     1
  3
A0
350
B8
  3
A1
350
B9
  3
A2
350
BA
  3
A3
350
BB
  3
A4
350
BC
  3
A5
350
BD
  3
A6
350
BE
  3
A7
350
BF
  3
A8
350
C0
  3
A9
350
C1
  3
B0
350
C2
  3
B1
350
C3
  3
B2
350
C4
  3
B3
350
C5
  3
B4
350
C6
  3
B5
350
C7
  3
B6
350
C8
  3
B7
350
C9
  3
B8
350
CA
  3
B9
350
CB
  3
C0
350
CC
  3
C1
350
CD
  3
C2
350
CE
  3
C3
350
CF
  3
C4
350
D0
  3
C5
350
D1
  3
C6
350
D2
  3
C7
350
D3
  3
C8
350
D4
  3
C9
350
D5
  3
D0
350
D6
  3
D1
350
D7
  3
D2
350
D8
  0
DICTIONARY
  5
1E9
102
{ACAD_REACTORS
330
C
102
}
330
C
100
AcDbDictionary
281
     1
  3
Metric50
350
1EA
  0
DICTIONARY
  5
92
102
{ACAD_REACTORS
330
C
102
}
330
C
100
AcDbDictionary
281
     1
  3
Standard
350
93
  0
DICTIONARY
  5
17F
102
{ACAD_REACTORS
330
C
102
}
330
C
100
AcDbDictionary
281
     1
  3
2dWireframe
350
185
  3
Basic
350
184
  3
Brighten
350
18B
  3
ColorChange
350
18F
  3
Conceptual
350
188
  3
Dim
350
18A
  3
EdgeColorOff
350
197
  3
Facepattern
350
18E
  3
Flat
350
180
  3
FlatWithEdges
350
181
  3
Gouraud
350
182
  3
GouraudWithEdges
350
183
  3
Hidden
350
187
  3
JitterOff
350
195
  3
Linepattern
350
18D
  3
OverhangOff
350
196
  3
Realistic
350
189
  3
Shaded
350
194
  3
Shaded with edges
350
193
  3
Shades of Gray
350
190
  3
Sketchy
350
191
  3
Thicken
350
18C
  3
Wireframe
350
186
  3
X-Ray
350
192
  0
XRECORD
  5
53F
102
{ACAD_REACTORS
330
C
102
}
330
C
100
AcDbXrecord
280
     1
 90
        1
330
93
  0
DICTIONARY
  5
59
102
{ACAD_REACTORS
330
C
102
}
330
C
100
AcDbDictionary
281
     1
  3
CANNOSCALE
350
DD
  3
CMLEADERSTYLE
350
E9
  3
CTABLESTYLE
350
98
  3
CVIEWDETAILSTYLE
350
209
  3
CVIEWSECTIONSTYLE
350
20A
  3
DIMASSOC
350
43
  3
HIDETEXT
350
5E
  3
MSLTSCALE
350
4F7
  3
PROJECTNAME
350
B6
  3
XCLIPFRAME
350
E2
  0
XRECORD
  5
502
102
{ACAD_REACTORS
330
501
102
}
330
501
100
AcDbXrecord
280
     1
102
VTR_0.000_0.000_1.000_1.000_VISUALSTYLE
340
185
102
VTR_0.000_0.000_1.000_1.000_GRIDDISPLAY
 70
     3
102
VTR_0.000_0.000_1.000_1.000_GRIDMAJOR
 70
     5
102
VTR_0.000_0.000_1.000_1.000_DEFAULTLIGHTING
280
     1
102
VTR_0.000_0.000_1.000_1.000_DEFAULTLIGHTINGTYPE
 70
     1
102
VTR_0.000_0.000_1.000_1.000_BRIGHTNESS
141
0.0
102
VTR_0.000_0.000_1.000_1.000_CONTRAST
142
0.0
  0
DICTIONARY
  5
FB
102
{ACAD_REACTORS
330
FA
102
}
330
FA
100
AcDbDictionary
281
     1
  0
XRECORD
  5
4F9
102
{ACAD_REACTORS
330
4F8
102
}
330
4F8
100
AcDbXrecord
280
     1
102
MATERIAL
340
177
  0
XRECORD
  5
4FB
102
{ACAD_REACTORS
330
4FA
102
}
330
4FA
100
AcDbXrecord
280
     1
102
MATERIAL
340
177
  0
XRECORD
  5
4FC
102
{ACAD_REACTORS
330
248
102
}
330
248
100
AcDbXrecord
280
     1
102
MATERIAL
340
177
  0
XRECORD
  5
249
102
{ACAD_REACTORS
330
248
102
}
330
248
100
AcDbXrecord
280
     1
290
     0
  0
XRECORD
  5
4FE
102
{ACAD_REACTORS
330
4FD
102
}
330
4FD
100
AcDbXrecord
280
     1
102
MATERIAL
340
177
  0
XRECORD
  5
4FF
102
{ACAD_REACTORS
330
23E
102
}
330
23E
100
AcDbXrecord
280
     1
102
MATERIAL
340
177
  0
XRECORD
  5
23F
102
{ACAD_REACTORS
330
23E
102
}
330
23E
100
AcDbXrecord
280
     1
290
     1
  0
XRECORD
  5
500
102
{ACAD_REACTORS
330
244
102
}
330
244
100
AcDbXrecord
280
     1
102
MATERIAL
340
177
  0
XRECORD
  5
245
102
{ACAD_REACTORS
330
244
102
}
330
244
100
AcDbXrecord
280
     1
290
     1
  0
DICTIONARY
  5
3D1
102
{ACAD_REACTORS
330
3CF
102
}
330
3CF
100
AcDbDictionary
281
     1
  3
ACDB_ANNOTATIONSCALES
350
3D2
  0
ACDBDETAILVIEWSTYLE
  5
1EC
102
{ACAD_REACTORS
330
1EB
102
}
330
1EB
100
AcDbModelDocViewStyle
 70
     0
  3
Metric50
290
     1
100
AcDbDetailViewStyle
 70
     0
 71
     0
 90
        3
 71
     1
340
11
 62
   256
 40
5.0
340
0
 62
   256
 40
5.0
300

 40
0.0
280
     1
 71
     2
340
16
 90
       25
 62
   256
 71
     3
340
11
 62
   256
 40
5.0
 90
        0
 40
15.0
 90
        1
300
%<\AcVar ViewDetailId>% (%<\AcVar ViewScale \f "%sn">%)
 71
     4
340
16
 90
       25
 62
   256
340
16
 90
       25
 62
   256
280
     0
  0
LAYOUT
  5
1E0
102
{ACAD_REACTORS
330
1A
102
}
330
1A
100
AcDbPlotSettings
  1

  2
None
  4
ISO_A4_(210.00_x_297.00_MM)
  6

 40
0.0
 41
0.0
 42
0.0
 43
0.0
 44
0.0
 45
0.0
 46
0.0
 47
0.0
 48
0.0
 49
0.0
140
0.0
141
0.0
142
1.0
143
1.0
 70
   688
 72
     1
 73
     1
 74
     5
  7

 75
    16
 76
     0
 77
     2
 78
   300
147
1.0
148
0.0
149
0.0
100
AcDbLayout
  1
Arkusz1
 70
     1
 71
     1
 10
-20.0
 20
-7.5
 11
277.0
 21
202.5
 12
0.0
 22
0.0
 32
0.0
 14
25.69999999999999
 24
19.5
 34
0.0
 15
231.3
 25
175.5
 35
0.0
146
0.0
 13
0.0
 23
0.0
 33
0.0
 16
1.0
 26
0.0
 36
0.0
 17
0.0
 27
1.0
 37
0.0
 76
     0
330
1DF
  0
LAYOUT
  5
1E4
102
{ACAD_REACTORS
330
1A
102
}
330
1A
100
AcDbPlotSettings
  1

  2
None
  4
ISO_A4_(210.00_x_297.00_MM)
  6

 40
0.0
 41
0.0
 42
0.0
 43
0.0
 44
0.0
 45
0.0
 46
0.0
 47
0.0
 48
0.0
 49
0.0
140
0.0
141
0.0
142
1.0
143
1.0
 70
   688
 72
     1
 73
     1
 74
     5
  7

 75
    16
 76
     0
 77
     2
 78
   300
147
1.0
148
0.0
149
0.0
100
AcDbLayout
  1
Arkusz2
 70
     1
 71
     2
 10
-20.0
 20
-7.5
 11
277.0
 21
202.5
 12
0.0
 22
0.0
 32
0.0
 14
25.69999999999999
 24
19.5
 34
0.0
 15
231.3
 25
175.5
 35
0.0
146
0.0
 13
0.0
 23
0.0
 33
0.0
 16
1.0
 26
0.0
 36
0.0
 17
0.0
 27
1.0
 37
0.0
 76
     0
330
1E3
  0
LAYOUT
  5
22
102
{ACAD_XDICTIONARY
360
B2
102
}
102
{ACAD_REACTORS
330
1A
102
}
330
1A
100
AcDbPlotSettings
  1

  2
none_device
  4
none_user_media
  6

 40
6.349999904632568
 41
6.349999904632568
 42
6.350006103515625
 43
6.350006103515625
 44
215.8999938964844
 45
279.3999938964844
 46
0.0
 47
103.0606281331548
 48
0.0
 49
0.0
140
0.0
141
0.0
142
1.0
143
6.379298247045111
 70
 11445
 72
     1
 73
     0
 74
     0
  7

 75
     0
 76
     0
 77
     2
 78
   300
147
0.1567570540322675
148
69.17288808618685
149
-33.53116226043312
100
AcDbLayout
  1
Model
 70
     1
 71
     0
 10
0.0
 20
0.0
 11
420.0
 21
297.0
 12
0.0
 22
0.0
 32
0.0
 14
1.000000000000000E+20
 24
1.000000000000000E+20
 34
1.000000000000000E+20
 15
-1.000000000000000E+20
 25
-1.000000000000000E+20
 35
-1.000000000000000E+20
146
0.0
 13
0.0
 23
0.0
 33
0.0
 16
1.0
 26
0.0
 36
0.0
 17
0.0
 27
1.0
 37
0.0
 76
     0
330
1F
331
1CC
1001
ACAD_PSEXT
1000
Żaden
1000
Żaden
1000
Nie można zastosować.
1000
Wybierz nazwę konfiguracji nowego plotera, aby wydrukować arkusz.
1070
     0
  0
MATERIAL
  5
16F
102
{ACAD_XDICTIONARY
360
170
102
}
102
{ACAD_REACTORS
330
6B
102
}
330
6B
100
AcDbMaterial
  1
ByBlock
 72
     0
 73
     2
 43
0.0008202099737533
 43
0.0
 43
0.0
 43
0.0
 43
0.0
 43
0.0008202099737533
 43
0.0
 43
0.0
 43
0.0
 43
0.0
 43
1.0
 43
0.0
 43
0.0
 43
0.0
 43
0.0
 43
1.0
 77
     0
 78
     2
 47
0.0008202099737533
 47
0.0
 47
0.0
 47
0.0
 47
0.0
 47
0.0008202099737533
 47
0.0
 47
0.0
 47
0.0
 47
0.0
 47
1.0
 47
0.0
 47
0.0
 47
0.0
 47
0.0
 47
1.0
171
     0
172
     2
 49
0.0008202099737533
 49
0.0
 49
0.0
 49
0.0
 49
0.0
 49
0.0008202099737533
 49
0.0
 49
0.0
 49
0.0
 49
0.0
 49
1.0
 49
0.0
 49
0.0
 49
0.0
 49
0.0
 49
1.0
175
     0
176
     2
142
0.0008202099737533
142
0.0
142
0.0
142
0.0
142
0.0
142
0.0008202099737533
142
0.0
142
0.0
142
0.0
142
0.0
142
1.0
142
0.0
142
0.0
142
0.0
142
0.0
142
1.0
179
     0
270
     2
144
0.0008202099737533
144
0.0
144
0.0
144
0.0
144
0.0
144
0.0008202099737533
144
0.0
144
0.0
144
0.0
144
0.0
144
1.0
144
0.0
144
0.0
144
0.0
144
0.0
144
1.0
274
     2
147
0.0008202099737533
147
0.0
147
0.0
147
0.0
147
0.0
147
0.0008202099737533
147
0.0
147
0.0
147
0.0
147
0.0
147
1.0
147
0.0
147
0.0
147
0.0
147
0.0
147
1.0
  0
MATERIAL
  5
167
102
{ACAD_XDICTIONARY
360
168
102
}
102
{ACAD_REACTORS
330
6B
102
}
330
6B
100
AcDbMaterial
  1
ByLayer
 72
     0
 73
     2
 43
0.0008202099737533
 43
0.0
 43
0.0
 43
0.0
 43
0.0
 43
0.0008202099737533
 43
0.0
 43
0.0
 43
0.0
 43
0.0
 43
1.0
 43
0.0
 43
0.0
 43
0.0
 43
0.0
 43
1.0
 77
     0
 78
     2
 47
0.0008202099737533
 47
0.0
 47
0.0
 47
0.0
 47
0.0
 47
0.0008202099737533
 47
0.0
 47
0.0
 47
0.0
 47
0.0
 47
1.0
 47
0.0
 47
0.0
 47
0.0
 47
0.0
 47
1.0
171
     0
172
     2
 49
0.0008202099737533
 49
0.0
 49
0.0
 49
0.0
 49
0.0
 49
0.0008202099737533
 49
0.0
 49
0.0
 49
0.0
 49
0.0
 49
1.0
 49
0.0
 49
0.0
 49
0.0
 49
0.0
 49
1.0
175
     0
176
     2
142
0.0008202099737533
142
0.0
142
0.0
142
0.0
142
0.0
142
0.0008202099737533
142
0.0
142
0.0
142
0.0
142
0.0
142
1.0
142
0.0
142
0.0
142
0.0
142
0.0
142
1.0
179
     0
270
     2
144
0.0008202099737533
144
0.0
144
0.0
144
0.0
144
0.0
144
0.0008202099737533
144
0.0
144
0.0
144
0.0
144
0.0
144
1.0
144
0.0
144
0.0
144
0.0
144
0.0
144
1.0
274
     2
147
0.0008202099737533
147
0.0
147
0.0
147
0.0
147
0.0
147
0.0008202099737533
147
0.0
147
0.0
147
0.0
147
0.0
147
1.0
147
0.0
147
0.0
147
0.0
147
0.0
147
1.0
  0
MATERIAL
  5
177
102
{ACAD_XDICTIONARY
360
178
102
}
102
{ACAD_REACTORS
330
6B
102
}
330
6B
100
AcDbMaterial
  1
Global
 72
     0
 73
     2
 43
0.0008202099737533
 43
0.0
 43
0.0
 43
0.0
 43
0.0
 43
0.0008202099737533
 43
0.0
 43
0.0
 43
0.0
 43
0.0
 43
1.0
 43
0.0
 43
0.0
 43
0.0
 43
0.0
 43
1.0
 77
     0
 78
     2
 47
0.0008202099737533
 47
0.0
 47
0.0
 47
0.0
 47
0.0
 47
0.0008202099737533
 47
0.0
 47
0.0
 47
0.0
 47
0.0
 47
1.0
 47
0.0
 47
0.0
 47
0.0
 47
0.0
 47
1.0
171
     0
172
     2
 49
0.0008202099737533
 49
0.0
 49
0.0
 49
0.0
 49
0.0
 49
0.0008202099737533
 49
0.0
 49
0.0
 49
0.0
 49
0.0
 49
1.0
 49
0.0
 49
0.0
 49
0.0
 49
0.0
 49
1.0
175
     0
176
     2
142
0.0008202099737533
142
0.0
142
0.0
142
0.0
142
0.0
142
0.0008202099737533
142
0.0
142
0.0
142
0.0
142
0.0
142
1.0
142
0.0
142
0.0
142
0.0
142
0.0
142
1.0
179
     0
270
     2
144
0.0008202099737533
144
0.0
144
0.0
144
0.0
144
0.0
144
0.0008202099737533
144
0.0
144
0.0
144
0.0
144
0.0
144
1.0
144
0.0
144
0.0
144
0.0
144
0.0
144
1.0
274
     2
147
0.0008202099737533
147
0.0
147
0.0
147
0.0
147
0.0
147
0.0008202099737533
147
0.0
147
0.0
147
0.0
147
0.0
147
1.0
147
0.0
147
0.0
147
0.0
147
0.0
147
1.0
  0
MLEADERSTYLE
  5
237
102
{ACAD_XDICTIONARY
360
508
102
}
102
{ACAD_REACTORS
330
DE
102
}
330
DE
100
AcDbMLeaderStyle
170
     2
171
     1
172
     0
 90
        2
 40
0.0
 41
0.0
173
     1
 91
-1056964608
340
14
 92
       -2
290
     1
 42
2.0
291
     1
 43
8.0
  3
Standard
 44
4.0
300

342
11
174
     1
178
     1
175
     1
176
     0
 93
-1056964608
 45
4.0
292
     0
297
     0
 46
0.18
 94
-1056964608
 47
1.0
 49
1.0
140
1.0
293
     1
141
0.0
294
     1
177
     0
142
1.0
295
     0
296
     1
143
3.75
1001
ACAD_MLEADERVER
1070
     2
  0
MLEADERSTYLE
  5
E1
102
{ACAD_XDICTIONARY
360
50A
102
}
102
{ACAD_REACTORS
330
DE
102
}
330
DE
100
AcDbMLeaderStyle
170
     2
171
     1
172
     0
 90
        2
 40
0.0
 41
0.0
173
     1
 91
-1056964608
340
14
 92
       -2
290
     1
 42
2.0
291
     1
 43
8.0
  3
Standard
 44
4.0
300

342
11
174
     1
178
     1
175
     1
176
     0
 93
-1056964608
 45
4.0
292
     0
297
     0
 46
0.18
 94
-1056964608
 47
1.0
 49
1.0
140
1.0
293
     1
141
0.0
294
     1
177
     0
142
1.0
295
     0
296
     0
143
3.75
1001
ACAD_MLEADERVER
1070
     2
  0
MLINESTYLE
  5
18
102
{ACAD_REACTORS
330
17
102
}
330
17
100
AcDbMlineStyle
  2
STANDARD
 70
     0
  3

 62
   256
 51
90.0
 52
90.0
 71
     2
 49
0.5
 62
   256
  6
BYLAYER
 49
-0.5
 62
   256
  6
BYLAYER
  0
ACDBPLACEHOLDER
  5
24A
102
{ACAD_REACTORS
330
E
102
}
330
E
  0
ACDBPLACEHOLDER
  5
F
102
{ACAD_REACTORS
330
E
102
}
330
E
  0
ACDBPLACEHOLDER
  5
240
102
{ACAD_REACTORS
330
E
102
}
330
E
  0
SCALE
  5
B8
102
{ACAD_REACTORS
330
B7
102
}
330
B7
100
AcDbScale
 70
     0
300
1:1
140
1.0
141
1.0
290
     1
  0
SCALE
  5
B9
102
{ACAD_REACTORS
330
B7
102
}
330
B7
100
AcDbScale
 70
     0
300
1:2
140
1.0
141
2.0
290
     0
  0
SCALE
  5
BA
102
{ACAD_REACTORS
330
B7
102
}
330
B7
100
AcDbScale
 70
     0
300
1:4
140
1.0
141
4.0
290
     0
  0
SCALE
  5
BB
102
{ACAD_REACTORS
330
B7
102
}
330
B7
100
AcDbScale
 70
     0
300
1:5
140
1.0
141
5.0
290
     0
  0
SCALE
  5
BC
102
{ACAD_REACTORS
330
B7
102
}
330
B7
100
AcDbScale
 70
     0
300
1:8
140
1.0
141
8.0
290
     0
  0
SCALE
  5
BD
102
{ACAD_REACTORS
330
B7
102
}
330
B7
100
AcDbScale
 70
     0
300
1:10
140
1.0
141
10.0
290
     0
  0
SCALE
  5
BE
102
{ACAD_REACTORS
330
B7
102
}
330
B7
100
AcDbScale
 70
     0
300
1:16
140
1.0
141
16.0
290
     0
  0
SCALE
  5
BF
102
{ACAD_REACTORS
330
B7
102
}
330
B7
100
AcDbScale
 70
     0
300
1:20
140
1.0
141
20.0
290
     0
  0
SCALE
  5
C0
102
{ACAD_REACTORS
330
B7
102
}
330
B7
100
AcDbScale
 70
     0
300
1:30
140
1.0
141
30.0
290
     0
  0
SCALE
  5
C1
102
{ACAD_REACTORS
330
B7
102
}
330
B7
100
AcDbScale
 70
     0
300
1:40
140
1.0
141
40.0
290
     0
  0
SCALE
  5
C2
102
{ACAD_REACTORS
330
B7
102
}
330
B7
100
AcDbScale
 70
     0
300
1:50
140
1.0
141
50.0
290
     0
  0
SCALE
  5
C3
102
{ACAD_REACTORS
330
B7
102
}
330
B7
100
AcDbScale
 70
     0
300
1:100
140
1.0
141
100.0
290
     0
  0
SCALE
  5
C4
102
{ACAD_REACTORS
330
B7
102
}
330
B7
100
AcDbScale
 70
     0
300
2:1
140
2.0
141
1.0
290
     0
  0
SCALE
  5
C5
102
{ACAD_REACTORS
330
B7
102
}
330
B7
100
AcDbScale
 70
     0
300
4:1
140
4.0
141
1.0
290
     0
  0
SCALE
  5
C6
102
{ACAD_REACTORS
330
B7
102
}
330
B7
100
AcDbScale
 70
     0
300
8:1
140
8.0
141
1.0
290
     0
  0
SCALE
  5
C7
102
{ACAD_REACTORS
330
B7
102
}
330
B7
100
AcDbScale
 70
     0
300
10:1
140
10.0
141
1.0
290
     0
  0
SCALE
  5
C8
102
{ACAD_REACTORS
330
B7
102
}
330
B7
100
AcDbScale
 70
     0
300
100:1
140
100.0
141
1.0
290
     0
  0
SCALE
  5
C9
102
{ACAD_REACTORS
330
B7
102
}
330
B7
100
AcDbScale
 70
     0
300
1/128" = 1'-0"
140
0.0078125
141
12.0
290
     0
  0
SCALE
  5
CA
102
{ACAD_REACTORS
330
B7
102
}
330
B7
100
AcDbScale
 70
     0
300
1/64" = 1'-0"
140
0.015625
141
12.0
290
     0
  0
SCALE
  5
CB
102
{ACAD_REACTORS
330
B7
102
}
330
B7
100
AcDbScale
 70
     0
300
1/32" = 1'-0"
140
0.03125
141
12.0
290
     0
  0
SCALE
  5
CC
102
{ACAD_REACTORS
330
B7
102
}
330
B7
100
AcDbScale
 70
     0
300
1/16" = 1'-0"
140
0.0625
141
12.0
290
     0
  0
SCALE
  5
CD
102
{ACAD_REACTORS
330
B7
102
}
330
B7
100
AcDbScale
 70
     0
300
3/32" = 1'-0"
140
0.09375
141
12.0
290
     0
  0
SCALE
  5
CE
102
{ACAD_REACTORS
330
B7
102
}
330
B7
100
AcDbScale
 70
     0
300
1/8" = 1'-0"
140
0.125
141
12.0
290
     0
  0
SCALE
  5
CF
102
{ACAD_REACTORS
330
B7
102
}
330
B7
100
AcDbScale
 70
     0
300
3/16" = 1'-0"
140
0.1875
141
12.0
290
     0
  0
SCALE
  5
D0
102
{ACAD_REACTORS
330
B7
102
}
330
B7
100
AcDbScale
 70
     0
300
1/4" = 1'-0"
140
0.25
141
12.0
290
     0
  0
SCALE
  5
D1
102
{ACAD_REACTORS
330
B7
102
}
330
B7
100
AcDbScale
 70
     0
300
3/8" = 1'-0"
140
0.375
141
12.0
290
     0
  0
SCALE
  5
D2
102
{ACAD_REACTORS
330
B7
102
}
330
B7
100
AcDbScale
 70
     0
300
1/2" = 1'-0"
140
0.5
141
12.0
290
     0
  0
SCALE
  5
D3
102
{ACAD_REACTORS
330
B7
102
}
330
B7
100
AcDbScale
 70
     0
300
3/4" = 1'-0"
140
0.75
141
12.0
290
     0
  0
SCALE
  5
D4
102
{ACAD_REACTORS
330
B7
102
}
330
B7
100
AcDbScale
 70
     0
300
1" = 1'-0"
140
1.0
141
12.0
290
     0
  0
SCALE
  5
D5
102
{ACAD_REACTORS
330
B7
102
}
330
B7
100
AcDbScale
 70
     0
300
1-1/2" = 1'-0"
140
1.5
141
12.0
290
     0
  0
SCALE
  5
D6
102
{ACAD_REACTORS
330
B7
102
}
330
B7
100
AcDbScale
 70
     0
300
3" = 1'-0"
140
3.0
141
12.0
290
     0
  0
SCALE
  5
D7
102
{ACAD_REACTORS
330
B7
102
}
330
B7
100
AcDbScale
 70
     0
300
6" = 1'-0"
140
6.0
141
12.0
290
     0
  0
SCALE
  5
D8
102
{ACAD_REACTORS
330
B7
102
}
330
B7
100
AcDbScale
 70
     0
300
1'-0" = 1'-0"
140
12.0
141
12.0
290
     0
  0
ACDBSECTIONVIEWSTYLE
  5
1EA
102
{ACAD_REACTORS
330
1E9
102
}
330
1E9
100
AcDbModelDocViewStyle
 70
     0
  3
Metric50
290
     1
100
AcDbSectionViewStyle
 70
     0
 71
     0
 90
      102
 71
     1
340
11
 62
   256
 40
5.0
340
0
340
0
 62
   256
 40
5.0
300
I, O, Q, S, X, Z
 40
10.0
 90
        0
 40
2.5
 90
        0
 71
     2
340
16
 90
       25
 62
   256
340
16
 90
       50
 62
   256
 40
5.0
 40
2.5
 40
5.0
 71
     3
340
11
 62
   256
 40
5.0
 90
        0
 40
15.0
 90
        1
300
%<\AcVar ViewSectionStartId>%-%<\AcVar ViewSectionEndId>% (%<\AcVar ViewScale \f "%sn">%)
 71
     4
 62
   256
 62
   257
300
ANSI31
 40
1.0
 90
        0
290
     0
290
     0
 90
        6
 40
0.0
 40
1.570796326794896
 40
0.2617993877991494
 40
1.308996938995747
 40
-0.2617993877991494
 40
1.832595714594046
  0
TABLESTYLE
  5
93
102
{ACAD_XDICTIONARY
360
50C
102
}
102
{ACAD_REACTORS
330
92
102
}
330
92
100
AcDbTableStyle
  3
Standard
 70
     0
 71
     0
 40
0.06
 41
0.06
280
     0
281
     0
  7
Standard
140
4.5
170
     2
 62
     0
 63
   257
283
     0
274
    -2
284
     1
 64
     0
275
    -2
285
     1
 65
     0
276
    -2
286
     1
 66
     0
277
    -2
287
     1
 67
     0
278
    -2
288
     1
 68
     0
279
    -2
289
     1
 69
     0
  7
Standard
140
6.0
170
     5
 62
     0
 63
   257
283
     0
274
    -2
284
     1
 64
     0
275
    -2
285
     1
 65
     0
276
    -2
286
     1
 66
     0
277
    -2
287
     1
 67
     0
278
    -2
288
     1
 68
     0
279
    -2
289
     1
 69
     0
  7
Standard
140
4.5
170
     5
 62
     0
 63
   257
283
     0
274
    -2
284
     1
 64
     0
275
    -2
285
     1
 65
     0
276
    -2
286
     1
 66
     0
277
    -2
287
     1
 67
     0
278
    -2
288
     1
 68
     0
279
    -2
289
     1
 69
     0
1001
ACAD
1000
AcRTDxfName
1000
TABLESTYLE
  0
VISUALSTYLE
  5
185
102
{ACAD_XDICTIONARY
360
50F
102
}
102
{ACAD_REACTORS
330
17F
102
}
330
17F
100
AcDbVisualStyle
  2
2dWireframe
 70
     4
 71
     0
 72
     2
 73
     0
 90
        0
 40
0.6
 41
30.0
 62
     5
 63
     7
421
 16777215
 74
     1
 91
        4
 64
     7
 65
   257
 75
     1
175
     1
 42
1.0
 92
        0
 66
   257
 43
1.0
 76
     1
 77
     6
 78
     2
 67
     7
 79
     5
170
     0
171
     0
290
     0
174
     0
 93
        1
 44
0.0
173
     0
291
     0
 45
0.0
1001
ACAD
1000
AcDbSavedByObjectVersion
1070
     0
  0
VISUALSTYLE
  5
184
102
{ACAD_XDICTIONARY
360
511
102
}
102
{ACAD_REACTORS
330
17F
102
}
330
17F
100
AcDbVisualStyle
  2
Basic
 70
     7
 71
     1
 72
     0
 73
     1
 90
        0
 40
0.6
 41
30.0
 62
     5
 63
     7
421
 16777215
 74
     0
 91
        4
 64
     7
 65
   257
 75
     1
175
     1
 42
1.0
 92
        8
 66
     7
 43
1.0
 76
     1
 77
     6
 78
     2
 67
     7
 79
     5
170
     0
171
     0
290
     0
174
     0
 93
        1
 44
0.0
173
     0
291
     1
 45
0.0
1001
ACAD
1000
AcDbSavedByObjectVersion
1070
     0
  0
VISUALSTYLE
  5
18B
102
{ACAD_XDICTIONARY
360
513
102
}
102
{ACAD_REACTORS
330
17F
102
}
330
17F
100
AcDbVisualStyle
  2
Brighten
 70
    12
 71
     2
 72
     2
 73
     0
 90
        0
 40
0.6
 41
30.0
 62
     5
 63
     7
421
 16777215
 74
     1
 91
        4
 64
     7
 65
   257
 75
     1
175
     1
 42
1.0
 92
        8
 66
     7
 43
1.0
 76
     1
 77
     6
 78
     2
 67
     7
 79
     5
170
     0
171
     0
290
     0
174
     0
 93
        1
 44
50.0
173
     0
291
     1
 45
0.0
1001
ACAD
1000
AcDbSavedByObjectVersion
1070
     0
  0
VISUALSTYLE
  5
18F
102
{ACAD_XDICTIONARY
360
515
102
}
102
{ACAD_REACTORS
330
17F
102
}
330
17F
100
AcDbVisualStyle
  2
ColorChange
 70
    16
 71
     2
 72
     2
 73
     3
 90
        0
 40
0.6
 41
30.0
 62
     5
 63
     8
421
  8421504
 74
     1
 91
        4
 64
     7
 65
   257
 75
     1
175
     1
 42
1.0
 92
        8
 66
     8
424
  8421504
 43
1.0
 76
     1
 77
     6
 78
     2
 67
     7
 79
     5
170
     0
171
     0
290
     0
174
     0
 93
        1
 44
0.0
173
     0
291
     1
 45
0.0
1001
ACAD
1000
AcDbSavedByObjectVersion
1070
     0
  0
VISUALSTYLE
  5
188
102
{ACAD_XDICTIONARY
360
517
102
}
102
{ACAD_REACTORS
330
17F
102
}
330
17F
100
AcDbVisualStyle
  2
Conceptual
 70
     9
 71
     3
 72
     2
 73
     0
 90
        0
 40
0.6
 41
30.0
 62
     5
 63
     7
421
 16777215
 74
     2
 91
        2
 64
     7
 65
   257
 75
     1
175
     1
 42
179.0
 92
        8
 66
     7
 43
1.0
 76
     1
 77
     6
 78
     2
 67
     7
 79
     3
170
     0
171
     0
290
     0
174
     0
 93
        1
 44
0.0
173
     0
291
     0
 45
0.0
1001
ACAD
1000
AcDbSavedByObjectVersion
1070
     0
  0
VISUALSTYLE
  5
18A
102
{ACAD_XDICTIONARY
360
519
102
}
102
{ACAD_REACTORS
330
17F
102
}
330
17F
100
AcDbVisualStyle
  2
Dim
 70
    11
 71
     2
 72
     2
 73
     0
 90
        0
 40
0.6
 41
30.0
 62
     5
 63
     7
421
 16777215
 74
     1
 91
        4
 64
     7
 65
   257
 75
     1
175
     1
 42
1.0
 92
        8
 66
     7
 43
1.0
 76
     1
 77
     6
 78
     2
 67
     7
 79
     5
170
     0
171
     0
290
     0
174
     0
 93
        1
 44
-50.0
173
     0
291
     1
 45
0.0
1001
ACAD
1000
AcDbSavedByObjectVersion
1070
     0
  0
VISUALSTYLE
  5
197
102
{ACAD_XDICTIONARY
360
51B
102
}
102
{ACAD_REACTORS
330
17F
102
}
330
17F
100
AcDbVisualStyle
  2
EdgeColorOff
 70
    22
 71
     2
 72
     2
 73
     0
 90
        0
 40
0.6
 41
30.0
 62
     5
 63
     7
421
 16777215
 74
     1
 91
        4
 64
     7
 65
   257
 75
     1
175
     1
 42
1.0
 92
        8
 66
     7
 43
1.0
 76
     1
 77
     6
 78
     2
 67
     7
 79
     5
170
     0
171
     0
290
     0
174
     0
 93
        1
 44
0.0
173
     0
291
     1
 45
0.0
1001
ACAD
1000
AcDbSavedByObjectVersion
1070
     0
  0
VISUALSTYLE
  5
18E
102
{ACAD_XDICTIONARY
360
51D
102
}
102
{ACAD_REACTORS
330
17F
102
}
330
17F
100
AcDbVisualStyle
  2
Facepattern
 70
    15
 71
     2
 72
     2
 73
     0
 90
        0
 40
0.6
 41
30.0
 62
     5
 63
     7
421
 16777215
 74
     1
 91
        4
 64
     7
 65
   257
 75
     1
175
     1
 42
1.0
 92
        8
 66
     7
 43
1.0
 76
     1
 77
     6
 78
     2
 67
     7
 79
     5
170
     0
171
     0
290
     0
174
     0
 93
        1
 44
0.0
173
     0
291
     1
 45
0.0
1001
ACAD
1000
AcDbSavedByObjectVersion
1070
     0
  0
VISUALSTYLE
  5
180
102
{ACAD_XDICTIONARY
360
51F
102
}
102
{ACAD_REACTORS
330
17F
102
}
330
17F
100
AcDbVisualStyle
  2
Flat
 70
     0
 71
     2
 72
     1
 73
     1
 90
        2
 40
0.6
 41
30.0
 62
     5
 63
     7
421
 16777215
 74
     0
 91
        0
 64
     7
 65
   257
 75
     1
175
     1
 42
1.0
 92
        8
 66
     7
 43
1.0
 76
     1
 77
     6
 78
     2
 67
     7
 79
     5
170
     0
171
     0
290
     0
174
     0
 93
       13
 44
0.0
173
     0
291
     1
 45
0.0
1001
ACAD
1000
AcDbSavedByObjectVersion
1070
     0
  0
VISUALSTYLE
  5
181
102
{ACAD_XDICTIONARY
360
521
102
}
102
{ACAD_REACTORS
330
17F
102
}
330
17F
100
AcDbVisualStyle
  2
FlatWithEdges
 70
     1
 71
     2
 72
     1
 73
     1
 90
        2
 40
0.6
 41
30.0
 62
     5
 63
     7
421
 16777215
 74
     1
 91
        0
 64
     7
 65
   257
 75
     1
175
     1
 42
1.0
 92
        0
 66
   257
 43
1.0
 76
     1
 77
     6
 78
     2
 67
     7
 79
     5
170
     0
171
     0
290
     0
174
     0
 93
       13
 44
0.0
173
     0
291
     1
 45
0.0
1001
ACAD
1000
AcDbSavedByObjectVersion
1070
     0
  0
VISUALSTYLE
  5
182
102
{ACAD_XDICTIONARY
360
523
102
}
102
{ACAD_REACTORS
330
17F
102
}
330
17F
100
AcDbVisualStyle
  2
Gouraud
 70
     2
 71
     2
 72
     2
 73
     1
 90
        2
 40
0.6
 41
30.0
 62
     5
 63
     7
421
 16777215
 74
     0
 91
        0
 64
     7
 65
   257
 75
     1
175
     1
 42
1.0
 92
        0
 66
     7
 43
1.0
 76
     1
 77
     6
 78
     2
 67
     7
 79
     5
170
     0
171
     0
290
     0
174
     0
 93
       13
 44
0.0
173
     0
291
     1
 45
0.0
1001
ACAD
1000
AcDbSavedByObjectVersion
1070
     0
  0
VISUALSTYLE
  5
183
102
{ACAD_XDICTIONARY
360
525
102
}
102
{ACAD_REACTORS
330
17F
102
}
330
17F
100
AcDbVisualStyle
  2
GouraudWithEdges
 70
     3
 71
     2
 72
     2
 73
     1
 90
        2
 40
0.6
 41
30.0
 62
     5
 63
     7
421
 16777215
 74
     1
 91
        0
 64
     7
 65
   257
 75
     1
175
     1
 42
1.0
 92
        0
 66
   257
 43
1.0
 76
     1
 77
     6
 78
     2
 67
     7
 79
     5
170
     0
171
     0
290
     0
174
     0
 93
       13
 44
0.0
173
     0
291
     1
 45
0.0
1001
ACAD
1000
AcDbSavedByObjectVersion
1070
     0
  0
VISUALSTYLE
  5
187
102
{ACAD_XDICTIONARY
360
527
102
}
102
{ACAD_REACTORS
330
17F
102
}
330
17F
100
AcDbVisualStyle
  2
Hidden
 70
     6
 71
     1
 72
     2
 73
     2
 90
        0
 40
0.6
 41
30.0
 62
     5
 63
     7
421
 16777215
 74
     2
 91
        2
 64
     7
 65
   257
 75
     2
175
     1
 42
40.0
 92
        0
 66
   257
 43
1.0
 76
     1
 77
     6
 78
     2
 67
     7
 79
     3
170
     0
171
     0
290
     0
174
     0
 93
        1
 44
0.0
173
     0
291
     0
 45
0.0
1001
ACAD
1000
AcDbSavedByObjectVersion
1070
     0
  0
VISUALSTYLE
  5
195
102
{ACAD_XDICTIONARY
360
529
102
}
102
{ACAD_REACTORS
330
17F
102
}
330
17F
100
AcDbVisualStyle
  2
JitterOff
 70
    20
 71
     2
 72
     2
 73
     0
 90
        0
 40
0.6
 41
30.0
 62
     5
 63
     7
421
 16777215
 74
     1
 91
        4
 64
     7
 65
   257
 75
     1
175
     1
 42
1.0
 92
       10
 66
     7
 43
1.0
 76
     1
 77
     6
 78
     2
 67
     7
 79
     5
170
     0
171
     0
290
     0
174
     0
 93
        1
 44
0.0
173
     0
291
     1
 45
0.0
1001
ACAD
1000
AcDbSavedByObjectVersion
1070
     0
  0
VISUALSTYLE
  5
18D
102
{ACAD_XDICTIONARY
360
52B
102
}
102
{ACAD_REACTORS
330
17F
102
}
330
17F
100
AcDbVisualStyle
  2
Linepattern
 70
    14
 71
     2
 72
     2
 73
     0
 90
        0
 40
0.6
 41
30.0
 62
     5
 63
     7
421
 16777215
 74
     1
 91
        4
 64
     7
 65
   257
 75
     7
175
     7
 42
1.0
 92
        8
 66
     7
 43
1.0
 76
     1
 77
     6
 78
     2
 67
     7
 79
     5
170
     0
171
     0
290
     0
174
     0
 93
        1
 44
0.0
173
     0
291
     1
 45
0.0
1001
ACAD
1000
AcDbSavedByObjectVersion
1070
     0
  0
VISUALSTYLE
  5
196
102
{ACAD_XDICTIONARY
360
52D
102
}
102
{ACAD_REACTORS
330
17F
102
}
330
17F
100
AcDbVisualStyle
  2
OverhangOff
 70
    21
 71
     2
 72
     2
 73
     0
 90
        0
 40
0.6
 41
30.0
 62
     5
 63
     7
421
 16777215
 74
     1
 91
        4
 64
     7
 65
   257
 75
     1
175
     1
 42
1.0
 92
        9
 66
     7
 43
1.0
 76
     1
 77
     6
 78
     2
 67
     7
 79
     5
170
     0
171
     0
290
     0
174
     0
 93
        1
 44
0.0
173
     0
291
     1
 45
0.0
1001
ACAD
1000
AcDbSavedByObjectVersion
1070
     0
  0
VISUALSTYLE
  5
189
102
{ACAD_XDICTIONARY
360
52F
102
}
102
{ACAD_REACTORS
330
17F
102
}
330
17F
100
AcDbVisualStyle
  2
Realistic
 70
     8
 71
     2
 72
     3
 73
     0
 90
        2
 40
0.6
 41
30.0
 62
     5
 63
     7
421
 16777215
 74
     0
 91
        0
 64
     7
 65
   257
 75
     1
175
     1
 42
1.0
 92
        8
 66
   257
 43
1.0
 76
     1
 77
     6
 78
     2
 67
     7
 79
     3
170
     0
171
     0
290
     0
174
     0
 93
       13
 44
0.0
173
     0
291
     0
 45
0.0
1001
ACAD
1000
AcDbSavedByObjectVersion
1070
     0
  0
VISUALSTYLE
  5
194
102
{ACAD_XDICTIONARY
360
531
102
}
102
{ACAD_REACTORS
330
17F
102
}
330
17F
100
AcDbVisualStyle
  2
Shaded
 70
    27
 71
     2
 72
     2
 73
     1
 90
        2
 40
0.6
 41
30.0
 62
     5
 63
     7
421
 16777215
 74
     0
 91
        4
 64
     7
 65
   257
 75
     1
175
     1
 42
1.0
 92
        8
 66
   257
 43
1.0
 76
     1
 77
     6
 78
     2
 67
     8
425
  7895160
 79
     3
170
     0
171
     0
290
     0
174
     0
 93
        5
 44
0.0
173
     0
291
     0
 45
0.0
1001
ACAD
1000
AcDbSavedByObjectVersion
1070
     0
  0
VISUALSTYLE
  5
193
102
{ACAD_XDICTIONARY
360
533
102
}
102
{ACAD_REACTORS
330
17F
102
}
330
17F
100
AcDbVisualStyle
  2
Shaded with edges
 70
    26
 71
     2
 72
     2
 73
     1
 90
        2
 40
0.6
 41
30.0
 62
     5
 63
     7
421
 16777215
 74
     1
 91
       10
 64
     7
 65
   257
 75
     2
175
     1
 42
1.0
 92
        8
 66
   257
 43
1.0
 76
     1
 77
     6
 78
     2
 67
     7
 79
     3
170
     0
171
     0
290
     0
174
     0
 93
        5
 44
0.0
173
     0
291
     0
 45
0.0
1001
ACAD
1000
AcDbSavedByObjectVersion
1070
     0
  0
VISUALSTYLE
  5
190
102
{ACAD_XDICTIONARY
360
535
102
}
102
{ACAD_REACTORS
330
17F
102
}
330
17F
100
AcDbVisualStyle
  2
Shades of Gray
 70
    23
 71
     2
 72
     2
 73
     3
 90
        0
 40
0.6
 41
30.0
 62
     5
 63
     7
421
 16777215
 74
     2
 91
        2
 64
     7
 65
     7
 75
     1
175
     1
 42
40.0
 92
        8
 66
     7
 43
1.0
 76
     1
 77
     6
 78
     2
 67
     7
 79
     3
170
     0
171
     0
290
     0
174
     0
 93
        1
 44
0.0
173
     0
291
     0
 45
0.0
1001
ACAD
1000
AcDbSavedByObjectVersion
1070
     0
  0
VISUALSTYLE
  5
191
102
{ACAD_XDICTIONARY
360
537
102
}
102
{ACAD_REACTORS
330
17F
102
}
330
17F
100
AcDbVisualStyle
  2
Sketchy
 70
    24
 71
     1
 72
     2
 73
     2
 90
        0
 40
0.6
 41
30.0
 62
     5
 63
     7
421
 16777215
 74
     2
 91
        2
 64
     7
 65
     7
 75
     1
175
     1
 42
40.0
 92
       11
 66
     7
 43
1.0
 76
     1
 77
     6
 78
     2
 67
     7
 79
     6
170
     0
171
     0
290
     0
174
  1301
 93
        1
 44
0.0
173
     0
291
     0
 45
0.0
1001
ACAD
1000
AcDbSavedByObjectVersion
1070
     0
  0
VISUALSTYLE
  5
18C
102
{ACAD_XDICTIONARY
360
539
102
}
102
{ACAD_REACTORS
330
17F
102
}
330
17F
100
AcDbVisualStyle
  2
Thicken
 70
    13
 71
     2
 72
     2
 73
     0
 90
        0
 40
0.6
 41
30.0
 62
     5
 63
     7
421
 16777215
 74
     1
 91
        4
 64
     7
 65
   257
 75
     1
175
     1
 42
1.0
 92
       12
 66
     7
 43
1.0
 76
     1
 77
     6
 78
     2
 67
     7
 79
     5
170
     0
171
     0
290
     0
174
     0
 93
        1
 44
0.0
173
     0
291
     1
 45
0.0
1001
ACAD
1000
AcDbSavedByObjectVersion
1070
     0
  0
VISUALSTYLE
  5
186
102
{ACAD_XDICTIONARY
360
53B
102
}
102
{ACAD_REACTORS
330
17F
102
}
330
17F
100
AcDbVisualStyle
  2
Wireframe
 70
     5
 71
     0
 72
     2
 73
     0
 90
        0
 40
0.6
 41
30.0
 62
     5
 63
     7
421
 16777215
 74
     1
 91
        4
 64
     7
 65
   257
 75
     1
175
     1
 42
1.0
 92
        0
 66
   257
 43
1.0
 76
     1
 77
     6
 78
     2
 67
     7
 79
     3
170
     0
171
     0
290
     0
174
     0
 93
        1
 44
0.0
173
     0
291
     0
 45
0.0
1001
ACAD
1000
AcDbSavedByObjectVersion
1070
     0
  0
VISUALSTYLE
  5
192
102
{ACAD_XDICTIONARY
360
53D
102
}
102
{ACAD_REACTORS
330
17F
102
}
330
17F
100
AcDbVisualStyle
  2
X-Ray
 70
    25
 71
     2
 72
     2
 73
     1
 90
        1
 40
0.5
 41
30.0
 62
     5
 63
     7
421
 16777215
 74
     1
 91
        0
 64
     7
 65
   257
 75
     1
175
     1
 42
1.0
 92
        8
 66
     7
 43
1.0
 76
     1
 77
     6
 78
     2
 67
     7
 79
     3
170
     0
171
     0
290
     0
174
     0
 93
       13
 44
0.0
173
     0
291
     0
 45
0.0
1001
ACAD
1000
AcDbSavedByObjectVersion
1070
     0
  0
DICTIONARYVAR
  5
DD
102
{ACAD_REACTORS
330
59
102
}
330
59
100
DictionaryVariables
280
     0
  1
1:1
  0
DICTIONARYVAR
  5
E9
102
{ACAD_REACTORS
330
59
102
}
330
59
100
DictionaryVariables
280
     0
  1
STANDARD
  0
DICTIONARYVAR
  5
98
102
{ACAD_REACTORS
330
59
102
}
330
59
100
DictionaryVariables
280
     0
  1
STANDARD
  0
DICTIONARYVAR
  5
209
102
{ACAD_REACTORS
330
59
102
}
330
59
100
DictionaryVariables
280
     0
  1
Metric50
  0
DICTIONARYVAR
  5
20A
102
{ACAD_REACTORS
330
59
102
}
330
59
100
DictionaryVariables
280
     0
  1
Metric50
  0
DICTIONARYVAR
  5
43
102
{ACAD_REACTORS
330
59
102
}
330
59
100
DictionaryVariables
280
     0
  1
2
  0
DICTIONARYVAR
  5
5E
102
{ACAD_REACTORS
330
59
102
}
330
59
100
DictionaryVariables
280
     0
  1
1
  0
DICTIONARYVAR
  5
4F7
102
{ACAD_REACTORS
330
59
102
}
330
59
100
DictionaryVariables
280
     0
  1
1
  0
DICTIONARYVAR
  5
B6
102
{ACAD_REACTORS
330
59
102
}
330
59
100
DictionaryVariables
280
     0
  1

  0
DICTIONARYVAR
  5
E2
102
{ACAD_REACTORS
330
59
102
}
330
59
100
DictionaryVariables
280
     0
  1
2
  0
DICTIONARY
  5
3D2
102
{ACAD_REACTORS
330
3D1
102
}
330
3D1
100
AcDbDictionary
281
     1
  0
DICTIONARY
  5
B2
330
22
100
AcDbDictionary
280
     1
281
     1
  3
ADSK_XREC_LAYOUTTHUMBNAIL
360
503
  0
DICTIONARY
  5
170
330
16F
100
AcDbDictionary
280
     1
281
     1
  3
ACAD_XREC_ROUNDTRIP
360
504
  0
DICTIONARY
  5
168
330
167
100
AcDbDictionary
280
     1
281
     1
  3
ACAD_XREC_ROUNDTRIP
360
505
  0
DICTIONARY
  5
178
330
177
100
AcDbDictionary
280
     1
281
     1
  3
ACAD_XREC_ROUNDTRIP
360
506
  0
DICTIONARY
  5
508
330
237
100
AcDbDictionary
280
     1
281
     1
  3
ACAD_XREC_ROUNDTRIP
360
509
  0
DICTIONARY
  5
50A
330
E1
100
AcDbDictionary
280
     1
281
     1
  3
ACAD_XREC_ROUNDTRIP
360
50B
  0
DICTIONARY
  5
50C
330
93
100
AcDbDictionary
280
     1
281
     1
  3
ACAD_ROUNDTRIP_2008_TABLESTYLE_CELLSTYLEMAP
360
50E
  3
ACAD_XREC_ROUNDTRIP
360
50D
  0
DICTIONARY
  5
50F
330
185
100
AcDbDictionary
280
     1
281
     1
  3
ACAD_XREC_ROUNDTRIP
360
510
  0
DICTIONARY
  5
511
330
184
100
AcDbDictionary
280
     1
281
     1
  3
ACAD_XREC_ROUNDTRIP
360
512
  0
DICTIONARY
  5
513
330
18B
100
AcDbDictionary
280
     1
281
     1
  3
ACAD_XREC_ROUNDTRIP
360
514
  0
DICTIONARY
  5
515
330
18F
100
AcDbDictionary
280
     1
281
     1
  3
ACAD_XREC_ROUNDTRIP
360
516
  0
DICTIONARY
  5
517
330
188
100
AcDbDictionary
280
     1
281
     1
  3
ACAD_XREC_ROUNDTRIP
360
518
  0
DICTIONARY
  5
519
330
18A
100
AcDbDictionary
280
     1
281
     1
  3
ACAD_XREC_ROUNDTRIP
360
51A
  0
DICTIONARY
  5
51B
330
197
100
AcDbDictionary
280
     1
281
     1
  3
ACAD_XREC_ROUNDTRIP
360
51C
  0
DICTIONARY
  5
51D
330
18E
100
AcDbDictionary
280
     1
281
     1
  3
ACAD_XREC_ROUNDTRIP
360
51E
  0
DICTIONARY
  5
51F
330
180
100
AcDbDictionary
280
     1
281
     1
  3
ACAD_XREC_ROUNDTRIP
360
520
  0
DICTIONARY
  5
521
330
181
100
AcDbDictionary
280
     1
281
     1
  3
ACAD_XREC_ROUNDTRIP
360
522
  0
DICTIONARY
  5
523
330
182
100
AcDbDictionary
280
     1
281
     1
  3
ACAD_XREC_ROUNDTRIP
360
524
  0
DICTIONARY
  5
525
330
183
100
AcDbDictionary
280
     1
281
     1
  3
ACAD_XREC_ROUNDTRIP
360
526
  0
DICTIONARY
  5
527
330
187
100
AcDbDictionary
280
     1
281
     1
  3
ACAD_XREC_ROUNDTRIP
360
528
  0
DICTIONARY
  5
529
330
195
100
AcDbDictionary
280
     1
281
     1
  3
ACAD_XREC_ROUNDTRIP
360
52A
  0
DICTIONARY
  5
52B
330
18D
100
AcDbDictionary
280
     1
281
     1
  3
ACAD_XREC_ROUNDTRIP
360
52C
  0
DICTIONARY
  5
52D
330
196
100
AcDbDictionary
280
     1
281
     1
  3
ACAD_XREC_ROUNDTRIP
360
52E
  0
DICTIONARY
  5
52F
330
189
100
AcDbDictionary
280
     1
281
     1
  3
ACAD_XREC_ROUNDTRIP
360
530
  0
DICTIONARY
  5
531
330
194
100
AcDbDictionary
280
     1
281
     1
  3
ACAD_XREC_ROUNDTRIP
360
532
  0
DICTIONARY
  5
533
330
193
100
AcDbDictionary
280
     1
281
     1
  3
ACAD_XREC_ROUNDTRIP
360
534
  0
DICTIONARY
  5
535
330
190
100
AcDbDictionary
280
     1
281
     1
  3
ACAD_XREC_ROUNDTRIP
360
536
  0
DICTIONARY
  5
537
330
191
100
AcDbDictionary
280
     1
281
     1
  3
ACAD_XREC_ROUNDTRIP
360
538
  0
DICTIONARY
  5
539
330
18C
100
AcDbDictionary
280
     1
281
     1
  3
ACAD_XREC_ROUNDTRIP
360
53A
  0
DICTIONARY
  5
53B
330
186
100
AcDbDictionary
280
     1
281
     1
  3
ACAD_XREC_ROUNDTRIP
360
53C
  0
DICTIONARY
  5
53D
330
192
100
AcDbDictionary
280
     1
281
     1
  3
ACAD_XREC_ROUNDTRIP
360
53E
  0
XRECORD
  5
503
102
{ACAD_REACTORS
330
B2
102
}
330
B2
100
AcDbXrecord
280
     1
310
89504E470D0A1A0A0000000D49484452000001000000008108030000001837949D00000300504C5445212830000000C8C8C80000000000000000000000000000000000000000000000000000330000660000990000CC0000FF0033000033330033660033990033CC0033FF0066000066330066660066990066CC0066FF0099
310
000099330099660099990099CC0099FF00CC0000CC3300CC6600CC9900CCCC00CCFF00FF0000FF3300FF6600FF9900FFCC00FFFF3300003300333300663300993300CC3300FF3333003333333333663333993333CC3333FF3366003366333366663366993366CC3366FF3399003399333399663399993399CC3399FF33CC00
310
33CC3333CC6633CC9933CCCC33CCFF33FF0033FF3333FF6633FF9933FFCC33FFFF6600006600336600666600996600CC6600FF6633006633336633666633996633CC6633FF6666006666336666666666996666CC6666FF6699006699336699666699996699CC6699FF66CC0066CC3366CC6666CC9966CCCC66CCFF66FF0066
310
FF3366FF6666FF9966FFCC66FFFF9900009900339900669900999900CC9900FF9933009933339933669933999933CC9933FF9966009966339966669966999966CC9966FF9999009999339999669999999999CC9999FF99CC0099CC3399CC6699CC9999CCCC99CCFF99FF0099FF3399FF6699FF9999FFCC99FFFFCC0000CC00
310
33CC0066CC0099CC00CCCC00FFCC3300CC3333CC3366CC3399CC33CCCC33FFCC6600CC6633CC6666CC6699CC66CCCC66FFCC9900CC9933CC9966CC9999CC99CCCC99FFCCCC00CCCC33CCCC66CCCC99CCCCCCCCCCFFCCFF00CCFF33CCFF66CCFF99CCFFCCCCFFFFFF0000FF0033FF0066FF0099FF00CCFF00FFFF3300FF3333
310
FF3366FF3399FF33CCFF33FFFF6600FF6633FF6666FF6699FF66CCFF66FFFF9900FF9933FF9966FF9999FF99CCFF99FFFFCC00FFCC33FFCC66FFCC99FFCCCCFFCCFFFFFF00FFFF33FFFF66FFFF99FFFFCCFFFFFF0000000D0D0D1A1A1A2828283535354343435050505D5D5D6B6B6B787878868686939393A1A1A1AEAEAEBB
310
BBBBC9C9C9D6D6D6E4E4E4F1F1F1FFFFFF000000000000000000000000000000000000000000000000000000000000B21171F6000000374944415478DAEDC13101000000C2A0F54F6D0C1FA00000000000000000000000000000000000000000000000000000000000000000CE0681810001D2E8F4740000000049454E44AE
310
426082
  0
XRECORD
  5
504
102
{ACAD_REACTORS
330
170
102
}
330
170
100
AcDbXrecord
280
     1
102
MATERIAL
148
0.0
149
0.0
149
0.0
 93
        0
 94
      127
282
     0
 72
     0
 77
     0
171
     0
175
     0
179
     0
273
     0
  0
XRECORD
  5
505
102
{ACAD_REACTORS
330
168
102
}
330
168
100
AcDbXrecord
280
     1
102
MATERIAL
148
0.0
149
0.0
149
0.0
 93
        0
 94
      127
282
     0
 72
     0
 77
     0
171
     0
175
     0
179
     0
273
     0
  0
XRECORD
  5
506
102
{ACAD_REACTORS
330
178
102
}
330
178
100
AcDbXrecord
280
     1
102
MATERIAL
148
0.0
149
0.0
149
0.0
 93
        0
 94
      127
282
     0
 72
     0
 77
     0
171
     0
175
     0
179
     0
273
     0
  0
XRECORD
  5
509
102
{ACAD_REACTORS
330
508
102
}
330
508
100
AcDbXrecord
280
     1
102
ACAD_ROUNDTRIP_2010_MLEADER_STYLE
  0
XRECORD
  5
50B
102
{ACAD_REACTORS
330
50A
102
}
330
50A
100
AcDbXrecord
280
     1
102
ACAD_ROUNDTRIP_2010_MLEADER_STYLE
  0
CELLSTYLEMAP
  5
50E
102
{ACAD_REACTORS
330
50C
102
}
330
50C
100
AcDbCellStyleMap
 90
        3
300
CELLSTYLE
  1
TABLEFORMAT_BEGIN
 90
        5
170
     1
 91
        0
 92
    32768
 62
   257
 93
        1
300
CONTENTFORMAT
  1
CONTENTFORMAT_BEGIN
 90
        0
 91
        0
 92
      512
 93
        0
300

 40
0.0
140
1.0
 94
        5
 62
     0
340
11
144
6.0
309
CONTENTFORMAT_END
171
     1
301
MARGIN
  1
CELLMARGIN_BEGIN
 40
1.5
 40
1.5
 40
0.06
 40
0.06
 40
0.18
 40
0.18
309
CELLMARGIN_END
 94
        6
 95
        1
302
GRIDFORMAT
  1
GRIDFORMAT_BEGIN
 90
        0
 91
        1
 62
     0
 92
       -2
340
0
 93
        0
 40
0.045
309
GRIDFORMAT_END
 95
        2
302
GRIDFORMAT
  1
GRIDFORMAT_BEGIN
 90
        0
 91
        1
 62
     0
 92
       -2
340
0
 93
        0
 40
0.045
309
GRIDFORMAT_END
 95
        4
302
GRIDFORMAT
  1
GRIDFORMAT_BEGIN
 90
        0
 91
        1
 62
     0
 92
       -2
340
0
 93
        0
 40
0.045
309
GRIDFORMAT_END
 95
        8
302
GRIDFORMAT
  1
GRIDFORMAT_BEGIN
 90
        0
 91
        1
 62
     0
 92
       -2
340
0
 93
        0
 40
0.045
309
GRIDFORMAT_END
 95
       16
302
GRIDFORMAT
  1
GRIDFORMAT_BEGIN
 90
        0
 91
        1
 62
     0
 92
       -2
340
0
 93
        0
 40
0.045
309
GRIDFORMAT_END
 95
       32
302
GRIDFORMAT
  1
GRIDFORMAT_BEGIN
 90
        0
 91
        1
 62
     0
 92
       -2
340
0
 93
        0
 40
0.045
309
GRIDFORMAT_END
309
TABLEFORMAT_END
  1
CELLSTYLE_BEGIN
 90
        1
 91
        1
300
_TITLE
309
CELLSTYLE_END
300
CELLSTYLE
  1
TABLEFORMAT_BEGIN
 90
        5
170
     1
 91
        0
 92
        0
 62
   257
 93
        1
300
CONTENTFORMAT
  1
CONTENTFORMAT_BEGIN
 90
        0
 91
        0
 92
      512
 93
        0
300

 40
0.0
140
1.0
 94
        5
 62
     0
340
11
144
4.5
309
CONTENTFORMAT_END
171
     1
301
MARGIN
  1
CELLMARGIN_BEGIN
 40
1.5
 40
1.5
 40
0.06
 40
0.06
 40
0.18
 40
0.18
309
CELLMARGIN_END
 94
        6
 95
        1
302
GRIDFORMAT
  1
GRIDFORMAT_BEGIN
 90
        0
 91
        1
 62
     0
 92
       -2
340
0
 93
        0
 40
0.045
309
GRIDFORMAT_END
 95
        2
302
GRIDFORMAT
  1
GRIDFORMAT_BEGIN
 90
        0
 91
        1
 62
     0
 92
       -2
340
0
 93
        0
 40
0.045
309
GRIDFORMAT_END
 95
        4
302
GRIDFORMAT
  1
GRIDFORMAT_BEGIN
 90
        0
 91
        1
 62
     0
 92
       -2
340
0
 93
        0
 40
0.045
309
GRIDFORMAT_END
 95
        8
302
GRIDFORMAT
  1
GRIDFORMAT_BEGIN
 90
        0
 91
        1
 62
     0
 92
       -2
340
0
 93
        0
 40
0.045
309
GRIDFORMAT_END
 95
       16
302
GRIDFORMAT
  1
GRIDFORMAT_BEGIN
 90
        0
 91
        1
 62
     0
 92
       -2
340
0
 93
        0
 40
0.045
309
GRIDFORMAT_END
 95
       32
302
GRIDFORMAT
  1
GRIDFORMAT_BEGIN
 90
        0
 91
        1
 62
     0
 92
       -2
340
0
 93
        0
 40
0.045
309
GRIDFORMAT_END
309
TABLEFORMAT_END
  1
CELLSTYLE_BEGIN
 90
        2
 91
        1
300
_HEADER
309
CELLSTYLE_END
300
CELLSTYLE
  1
TABLEFORMAT_BEGIN
 90
        5
170
     1
 91
        0
 92
        0
 62
   257
 93
        1
300
CONTENTFORMAT
  1
CONTENTFORMAT_BEGIN
 90
        0
 91
        0
 92
      512
 93
        0
300

 40
0.0
140
1.0
 94
        2
 62
     0
340
11
144
4.5
309
CONTENTFORMAT_END
171
     1
301
MARGIN
  1
CELLMARGIN_BEGIN
 40
1.5
 40
1.5
 40
0.06
 40
0.06
 40
0.18
 40
0.18
309
CELLMARGIN_END
 94
        6
 95
        1
302
GRIDFORMAT
  1
GRIDFORMAT_BEGIN
 90
        0
 91
        1
 62
     0
 92
       -2
340
0
 93
        0
 40
0.045
309
GRIDFORMAT_END
 95
        2
302
GRIDFORMAT
  1
GRIDFORMAT_BEGIN
 90
        0
 91
        1
 62
     0
 92
       -2
340
0
 93
        0
 40
0.045
309
GRIDFORMAT_END
 95
        4
302
GRIDFORMAT
  1
GRIDFORMAT_BEGIN
 90
        0
 91
        1
 62
     0
 92
       -2
340
0
 93
        0
 40
0.045
309
GRIDFORMAT_END
 95
        8
302
GRIDFORMAT
  1
GRIDFORMAT_BEGIN
 90
        0
 91
        1
 62
     0
 92
       -2
340
0
 93
        0
 40
0.045
309
GRIDFORMAT_END
 95
       16
302
GRIDFORMAT
  1
GRIDFORMAT_BEGIN
 90
        0
 91
        1
 62
     0
 92
       -2
340
0
 93
        0
 40
0.045
309
GRIDFORMAT_END
 95
       32
302
GRIDFORMAT
  1
GRIDFORMAT_BEGIN
 90
        0
 91
        1
 62
     0
 92
       -2
340
0
 93
        0
 40
0.045
309
GRIDFORMAT_END
309
TABLEFORMAT_END
  1
CELLSTYLE_BEGIN
 90
        3
 91
        2
300
_DATA
309
CELLSTYLE_END
  0
XRECORD
  5
50D
102
{ACAD_REACTORS
330
50C
102
}
330
50C
100
AcDbXrecord
280
     1
102
ACAD_ROUNDTRIP_PRE2007_TABLESTYLE
 90
      512
 91
        0
  1

 92
      512
 93
        0
  2

 94
      512
 95
        0
  3

  0
XRECORD
  5
510
102
{ACAD_REACTORS
330
50F
102
}
330
50F
100
AcDbXrecord
280
     1
102
RTVSPropertyOp0
 70
     1
102
RTVSPropertyOp1
 70
     1
102
RTVSPropertyOp2
 70
     1
102
RTVSPropertyOp3
 70
     1
102
RTVSPropertyOp4
 70
     1
102
RTVSPropertyOp5
 70
     1
102
RTVSPropertyOp6
 70
     1
102
RTVSPropertyOp7
 70
     1
102
RTVSPropertyOp8
 70
     1
102
RTVSPropertyOp9
 70
     1
102
RTVSPropertyOp10
 70
     1
102
RTVSPropertyOp11
 70
     1
102
RTVSPropertyOp12
 70
     1
102
RTVSPropertyOp13
 70
     1
102
RTVSPropertyOp14
 70
     1
102
RTVSPropertyOp15
 70
     1
102
RTVSPropertyOp16
 70
     1
102
RTVSPropertyOp17
 70
     1
102
RTVSPropertyOp18
 70
     1
102
RTVSPropertyOp19
 70
     1
102
RTVSPropertyOp20
 70
     1
102
RTVSPropertyOp21
 70
     1
102
RTVSPropertyOp22
 70
     1
102
RTVSPropertyOp23
 70
     1
102
RTVSPropertyOp24
 70
     1
102
RTVSPropertyOp25
 70
     1
102
RTVSPropertyOp26
 70
     1
102
RTVSPropertyOp27
 70
     1
102
RTVSPropertyOp28
 70
     1
102
RTVSPropertyOp29
 70
     1
102
RTVSPropertyOp30
 70
     1
102
RTVSPropertyOp31
 70
     1
102
RTVSPropertyOp32
 70
     1
102
RTVSPropertyOp33
 70
     1
102
RTVSPropertyOp34
 70
     1
102
RTVSPropertyOp35
 70
     1
102
RTVSPropertyOp36
 70
     1
102
RTVSPropertyOp37
 70
     1
102
RTVSPropertyOp38
 70
     1
102
RTVSPropertyOp39
 70
     1
102
RTVSPropertyOp40
 70
     1
102
RTVSPropertyOp41
 70
     1
102
RTVSPropertyOp42
 70
     1
102
RTVSPropertyOp43
 70
     1
102
RTVSPropertyOp44
 70
     1
102
RTVSPropertyOp45
 70
     1
102
RTVSPropertyOp46
 70
     1
102
RTVSPropertyOp47
 70
     1
102
RTVSPropertyOp48
 70
     1
102
RTVSPropertyOp49
 70
     1
102
RTVSPropertyOp50
 70
     1
102
RTVSPropertyOp51
 70
     0
102
RTVSPropertyOp52
 70
     0
102
RTVSPropertyOp53
 70
     1
102
RTVSPropertyOp54
 70
     1
102
RTVSPropertyOp55
 70
     1
102
RTVSPropertyOp56
 70
     1
102
RTVSPropertyOp57
 70
     1
102
RTVSPost2010Prop28
280
     1
102
RTVSPost2010PropOp28
 70
     1
102
RTVSPost2010Prop29
280
     1
102
RTVSPost2010PropOp29
 70
     1
102
RTVSPost2010Prop30
280
     0
102
RTVSPost2010PropOp30
 70
     1
102
RTVSPost2010Prop31
280
     0
102
RTVSPost2010PropOp31
 70
     1
102
RTVSPost2010Prop32
280
     0
102
RTVSPost2010PropOp32
 70
     1
102
RTVSPost2010Prop33
280
     0
102
RTVSPost2010PropOp33
 70
     1
102
RTVSPost2010Prop34
280
     0
102
RTVSPost2010PropOp34
 70
     1
102
RTVSPost2010Prop35
280
     0
102
RTVSPost2010PropOp35
 70
     1
102
RTVSPost2010Prop36
280
     0
102
RTVSPost2010PropOp36
 70
     1
102
RTVSPost2010Prop37
 90
       50
102
RTVSPost2010PropOp37
 70
     1
102
RTVSPost2010Prop38
140
0.0
102
RTVSPost2010PropOp38
 70
     1
102
RTVSPost2010Prop39
140
1.0
102
RTVSPost2010PropOp39
 70
     1
102
RTVSPost2010Prop40
 90
        0
102
RTVSPost2010PropOp40
 70
     1
102
RTVSPost2010Prop41ColorIndex
 90
       18
102
RTVSPost2010Prop41ColorRGB
 90
        0
102
RTVSPost2010PropOp41
 70
     1
102
RTVSPost2010Prop42
 90
       50
102
RTVSPost2010PropOp42
 70
     1
102
RTVSPost2010Prop43
 90
        3
102
RTVSPost2010PropOp43
 70
     1
102
RTVSPost2010Prop44ColorIndex
 90
        5
102
RTVSPost2010Prop44ColorRGB
 90
      255
102
RTVSPost2010PropOp44
 70
     1
102
RTVSPost2010Prop45
280
     0
102
RTVSPost2010PropOp45
 70
     1
102
RTVSPost2010Prop46
 90
       50
102
RTVSPost2010PropOp46
 70
     1
102
RTVSPost2010Prop47
 90
       50
102
RTVSPost2010PropOp47
 70
     1
102
RTVSPost2010Prop48
 90
       50
102
RTVSPost2010PropOp48
 70
     1
102
RTVSPost2010Prop49
280
     0
102
RTVSPost2010PropOp49
 70
     1
102
RTVSPost2010Prop50
 90
       50
102
RTVSPost2010PropOp50
 70
     1
102
RTVSPost2010Prop51ColorIndex
 90
      256
102
RTVSPost2010Prop51ColorRGB
 90
-16777216
102
RTVSPost2010PropOp51
 70
     0
102
RTVSPost2010Prop52
140
1.0
102
RTVSPost2010PropOp52
 70
     0
102
RTVSPost2010Prop53
 90
        0
102
RTVSPost2010PropOp53
 70
     1
102
RTVSPost2010Prop54
  1
strokes_ogs.tif
102
RTVSPost2010PropOp54
 70
     1
102
RTVSPost2010Prop55
280
     0
102
RTVSPost2010PropOp55
 70
     1
102
RTVSPost2010Prop56
140
1.0
102
RTVSPost2010PropOp56
 70
     1
102
RTVSPost2010Prop57
140
1.0
102
RTVSPost2010PropOp57
 70
     1
  0
XRECORD
  5
512
102
{ACAD_REACTORS
330
511
102
}
330
511
100
AcDbXrecord
280
     1
102
RTVSPropertyOp0
 70
     1
102
RTVSPropertyOp1
 70
     1
102
RTVSPropertyOp2
 70
     1
102
RTVSPropertyOp3
 70
     1
102
RTVSPropertyOp4
 70
     1
102
RTVSPropertyOp5
 70
     1
102
RTVSPropertyOp6
 70
     1
102
RTVSPropertyOp7
 70
     1
102
RTVSPropertyOp8
 70
     1
102
RTVSPropertyOp9
 70
     1
102
RTVSPropertyOp10
 70
     1
102
RTVSPropertyOp11
 70
     1
102
RTVSPropertyOp12
 70
     1
102
RTVSPropertyOp13
 70
     1
102
RTVSPropertyOp14
 70
     1
102
RTVSPropertyOp15
 70
     1
102
RTVSPropertyOp16
 70
     1
102
RTVSPropertyOp17
 70
     1
102
RTVSPropertyOp18
 70
     1
102
RTVSPropertyOp19
 70
     1
102
RTVSPropertyOp20
 70
     1
102
RTVSPropertyOp21
 70
     1
102
RTVSPropertyOp22
 70
     1
102
RTVSPropertyOp23
 70
     1
102
RTVSPropertyOp24
 70
     1
102
RTVSPropertyOp25
 70
     1
102
RTVSPropertyOp26
 70
     1
102
RTVSPropertyOp27
 70
     1
102
RTVSPropertyOp28
 70
     1
102
RTVSPropertyOp29
 70
     1
102
RTVSPropertyOp30
 70
     1
102
RTVSPropertyOp31
 70
     1
102
RTVSPropertyOp32
 70
     1
102
RTVSPropertyOp33
 70
     1
102
RTVSPropertyOp34
 70
     1
102
RTVSPropertyOp35
 70
     1
102
RTVSPropertyOp36
 70
     1
102
RTVSPropertyOp37
 70
     1
102
RTVSPropertyOp38
 70
     1
102
RTVSPropertyOp39
 70
     1
102
RTVSPropertyOp40
 70
     1
102
RTVSPropertyOp41
 70
     1
102
RTVSPropertyOp42
 70
     1
102
RTVSPropertyOp43
 70
     1
102
RTVSPropertyOp44
 70
     1
102
RTVSPropertyOp45
 70
     1
102
RTVSPropertyOp46
 70
     1
102
RTVSPropertyOp47
 70
     1
102
RTVSPropertyOp48
 70
     1
102
RTVSPropertyOp49
 70
     1
102
RTVSPropertyOp50
 70
     1
102
RTVSPropertyOp51
 70
     0
102
RTVSPropertyOp52
 70
     0
102
RTVSPropertyOp53
 70
     1
102
RTVSPropertyOp54
 70
     1
102
RTVSPropertyOp55
 70
     1
102
RTVSPropertyOp56
 70
     1
102
RTVSPropertyOp57
 70
     1
102
RTVSPost2010Prop28
280
     0
102
RTVSPost2010PropOp28
 70
     1
102
RTVSPost2010Prop29
280
     1
102
RTVSPost2010PropOp29
 70
     1
102
RTVSPost2010Prop30
280
     1
102
RTVSPost2010PropOp30
 70
     1
102
RTVSPost2010Prop31
280
     0
102
RTVSPost2010PropOp31
 70
     1
102
RTVSPost2010Prop32
280
     0
102
RTVSPost2010PropOp32
 70
     1
102
RTVSPost2010Prop33
280
     0
102
RTVSPost2010PropOp33
 70
     1
102
RTVSPost2010Prop34
280
     0
102
RTVSPost2010PropOp34
 70
     1
102
RTVSPost2010Prop35
280
     0
102
RTVSPost2010PropOp35
 70
     1
102
RTVSPost2010Prop36
280
     0
102
RTVSPost2010PropOp36
 70
     1
102
RTVSPost2010Prop37
 90
       50
102
RTVSPost2010PropOp37
 70
     1
102
RTVSPost2010Prop38
140
0.0
102
RTVSPost2010PropOp38
 70
     1
102
RTVSPost2010Prop39
140
1.0
102
RTVSPost2010PropOp39
 70
     1
102
RTVSPost2010Prop40
 90
        0
102
RTVSPost2010PropOp40
 70
     1
102
RTVSPost2010Prop41ColorIndex
 90
       18
102
RTVSPost2010Prop41ColorRGB
 90
        0
102
RTVSPost2010PropOp41
 70
     1
102
RTVSPost2010Prop42
 90
       50
102
RTVSPost2010PropOp42
 70
     1
102
RTVSPost2010Prop43
 90
        3
102
RTVSPost2010PropOp43
 70
     1
102
RTVSPost2010Prop44ColorIndex
 90
        5
102
RTVSPost2010Prop44ColorRGB
 90
      255
102
RTVSPost2010PropOp44
 70
     1
102
RTVSPost2010Prop45
280
     0
102
RTVSPost2010PropOp45
 70
     1
102
RTVSPost2010Prop46
 90
       50
102
RTVSPost2010PropOp46
 70
     1
102
RTVSPost2010Prop47
 90
       50
102
RTVSPost2010PropOp47
 70
     1
102
RTVSPost2010Prop48
 90
       50
102
RTVSPost2010PropOp48
 70
     1
102
RTVSPost2010Prop49
280
     0
102
RTVSPost2010PropOp49
 70
     1
102
RTVSPost2010Prop50
 90
       50
102
RTVSPost2010PropOp50
 70
     1
102
RTVSPost2010Prop51ColorIndex
 90
      256
102
RTVSPost2010Prop51ColorRGB
 90
-16777216
102
RTVSPost2010PropOp51
 70
     0
102
RTVSPost2010Prop52
140
1.0
102
RTVSPost2010PropOp52
 70
     0
102
RTVSPost2010Prop53
 90
        0
102
RTVSPost2010PropOp53
 70
     1
102
RTVSPost2010Prop54
  1
strokes_ogs.tif
102
RTVSPost2010PropOp54
 70
     1
102
RTVSPost2010Prop55
280
     0
102
RTVSPost2010PropOp55
 70
     1
102
RTVSPost2010Prop56
140
1.0
102
RTVSPost2010PropOp56
 70
     1
102
RTVSPost2010Prop57
140
1.0
102
RTVSPost2010PropOp57
 70
     1
  0
XRECORD
  5
514
102
{ACAD_REACTORS
330
513
102
}
330
513
100
AcDbXrecord
280
     1
102
RTVSPropertyOp0
 70
     1
102
RTVSPropertyOp1
 70
     1
102
RTVSPropertyOp2
 70
     1
102
RTVSPropertyOp3
 70
     1
102
RTVSPropertyOp4
 70
     1
102
RTVSPropertyOp5
 70
     1
102
RTVSPropertyOp6
 70
     1
102
RTVSPropertyOp7
 70
     1
102
RTVSPropertyOp8
 70
     1
102
RTVSPropertyOp9
 70
     1
102
RTVSPropertyOp10
 70
     1
102
RTVSPropertyOp11
 70
     1
102
RTVSPropertyOp12
 70
     1
102
RTVSPropertyOp13
 70
     1
102
RTVSPropertyOp14
 70
     1
102
RTVSPropertyOp15
 70
     1
102
RTVSPropertyOp16
 70
     1
102
RTVSPropertyOp17
 70
     1
102
RTVSPropertyOp18
 70
     1
102
RTVSPropertyOp19
 70
     1
102
RTVSPropertyOp20
 70
     1
102
RTVSPropertyOp21
 70
     1
102
RTVSPropertyOp22
 70
     1
102
RTVSPropertyOp23
 70
     1
102
RTVSPropertyOp24
 70
     1
102
RTVSPropertyOp25
 70
     1
102
RTVSPropertyOp26
 70
     1
102
RTVSPropertyOp27
 70
     1
102
RTVSPropertyOp28
 70
     1
102
RTVSPropertyOp29
 70
     1
102
RTVSPropertyOp30
 70
     1
102
RTVSPropertyOp31
 70
     1
102
RTVSPropertyOp32
 70
     1
102
RTVSPropertyOp33
 70
     1
102
RTVSPropertyOp34
 70
     1
102
RTVSPropertyOp35
 70
     1
102
RTVSPropertyOp36
 70
     1
102
RTVSPropertyOp37
 70
     1
102
RTVSPropertyOp38
 70
     1
102
RTVSPropertyOp39
 70
     1
102
RTVSPropertyOp40
 70
     1
102
RTVSPropertyOp41
 70
     1
102
RTVSPropertyOp42
 70
     1
102
RTVSPropertyOp43
 70
     1
102
RTVSPropertyOp44
 70
     1
102
RTVSPropertyOp45
 70
     1
102
RTVSPropertyOp46
 70
     1
102
RTVSPropertyOp47
 70
     1
102
RTVSPropertyOp48
 70
     1
102
RTVSPropertyOp49
 70
     1
102
RTVSPropertyOp50
 70
     1
102
RTVSPropertyOp51
 70
     0
102
RTVSPropertyOp52
 70
     0
102
RTVSPropertyOp53
 70
     1
102
RTVSPropertyOp54
 70
     1
102
RTVSPropertyOp55
 70
     1
102
RTVSPropertyOp56
 70
     1
102
RTVSPropertyOp57
 70
     1
102
RTVSPost2010Prop28
280
     0
102
RTVSPost2010PropOp28
 70
     1
102
RTVSPost2010Prop29
280
     1
102
RTVSPost2010PropOp29
 70
     1
102
RTVSPost2010Prop30
280
     1
102
RTVSPost2010PropOp30
 70
     1
102
RTVSPost2010Prop31
280
     0
102
RTVSPost2010PropOp31
 70
     1
102
RTVSPost2010Prop32
280
     0
102
RTVSPost2010PropOp32
 70
     1
102
RTVSPost2010Prop33
280
     0
102
RTVSPost2010PropOp33
 70
     1
102
RTVSPost2010Prop34
280
     0
102
RTVSPost2010PropOp34
 70
     1
102
RTVSPost2010Prop35
280
     0
102
RTVSPost2010PropOp35
 70
     1
102
RTVSPost2010Prop36
280
     0
102
RTVSPost2010PropOp36
 70
     1
102
RTVSPost2010Prop37
 90
       50
102
RTVSPost2010PropOp37
 70
     1
102
RTVSPost2010Prop38
140
0.0
102
RTVSPost2010PropOp38
 70
     1
102
RTVSPost2010Prop39
140
1.0
102
RTVSPost2010PropOp39
 70
     1
102
RTVSPost2010Prop40
 90
        0
102
RTVSPost2010PropOp40
 70
     1
102
RTVSPost2010Prop41ColorIndex
 90
       18
102
RTVSPost2010Prop41ColorRGB
 90
        0
102
RTVSPost2010PropOp41
 70
     1
102
RTVSPost2010Prop42
 90
       50
102
RTVSPost2010PropOp42
 70
     1
102
RTVSPost2010Prop43
 90
        3
102
RTVSPost2010PropOp43
 70
     1
102
RTVSPost2010Prop44ColorIndex
 90
        5
102
RTVSPost2010Prop44ColorRGB
 90
      255
102
RTVSPost2010PropOp44
 70
     1
102
RTVSPost2010Prop45
280
     0
102
RTVSPost2010PropOp45
 70
     1
102
RTVSPost2010Prop46
 90
       50
102
RTVSPost2010PropOp46
 70
     1
102
RTVSPost2010Prop47
 90
       50
102
RTVSPost2010PropOp47
 70
     1
102
RTVSPost2010Prop48
 90
       50
102
RTVSPost2010PropOp48
 70
     1
102
RTVSPost2010Prop49
280
     0
102
RTVSPost2010PropOp49
 70
     1
102
RTVSPost2010Prop50
 90
       50
102
RTVSPost2010PropOp50
 70
     1
102
RTVSPost2010Prop51ColorIndex
 90
      256
102
RTVSPost2010Prop51ColorRGB
 90
-16777216
102
RTVSPost2010PropOp51
 70
     0
102
RTVSPost2010Prop52
140
1.0
102
RTVSPost2010PropOp52
 70
     0
102
RTVSPost2010Prop53
 90
        0
102
RTVSPost2010PropOp53
 70
     1
102
RTVSPost2010Prop54
  1
strokes_ogs.tif
102
RTVSPost2010PropOp54
 70
     1
102
RTVSPost2010Prop55
280
     0
102
RTVSPost2010PropOp55
 70
     1
102
RTVSPost2010Prop56
140
1.0
102
RTVSPost2010PropOp56
 70
     1
102
RTVSPost2010Prop57
140
1.0
102
RTVSPost2010PropOp57
 70
     1
  0
XRECORD
  5
516
102
{ACAD_REACTORS
330
515
102
}
330
515
100
AcDbXrecord
280
     1
102
RTVSPropertyOp0
 70
     1
102
RTVSPropertyOp1
 70
     1
102
RTVSPropertyOp2
 70
     1
102
RTVSPropertyOp3
 70
     1
102
RTVSPropertyOp4
 70
     1
102
RTVSPropertyOp5
 70
     1
102
RTVSPropertyOp6
 70
     1
102
RTVSPropertyOp7
 70
     1
102
RTVSPropertyOp8
 70
     1
102
RTVSPropertyOp9
 70
     1
102
RTVSPropertyOp10
 70
     1
102
RTVSPropertyOp11
 70
     1
102
RTVSPropertyOp12
 70
     1
102
RTVSPropertyOp13
 70
     1
102
RTVSPropertyOp14
 70
     1
102
RTVSPropertyOp15
 70
     1
102
RTVSPropertyOp16
 70
     1
102
RTVSPropertyOp17
 70
     1
102
RTVSPropertyOp18
 70
     1
102
RTVSPropertyOp19
 70
     1
102
RTVSPropertyOp20
 70
     1
102
RTVSPropertyOp21
 70
     1
102
RTVSPropertyOp22
 70
     1
102
RTVSPropertyOp23
 70
     1
102
RTVSPropertyOp24
 70
     1
102
RTVSPropertyOp25
 70
     1
102
RTVSPropertyOp26
 70
     1
102
RTVSPropertyOp27
 70
     1
102
RTVSPropertyOp28
 70
     1
102
RTVSPropertyOp29
 70
     1
102
RTVSPropertyOp30
 70
     1
102
RTVSPropertyOp31
 70
     1
102
RTVSPropertyOp32
 70
     1
102
RTVSPropertyOp33
 70
     1
102
RTVSPropertyOp34
 70
     1
102
RTVSPropertyOp35
 70
     1
102
RTVSPropertyOp36
 70
     1
102
RTVSPropertyOp37
 70
     1
102
RTVSPropertyOp38
 70
     1
102
RTVSPropertyOp39
 70
     1
102
RTVSPropertyOp40
 70
     1
102
RTVSPropertyOp41
 70
     1
102
RTVSPropertyOp42
 70
     1
102
RTVSPropertyOp43
 70
     1
102
RTVSPropertyOp44
 70
     1
102
RTVSPropertyOp45
 70
     1
102
RTVSPropertyOp46
 70
     1
102
RTVSPropertyOp47
 70
     1
102
RTVSPropertyOp48
 70
     1
102
RTVSPropertyOp49
 70
     1
102
RTVSPropertyOp50
 70
     1
102
RTVSPropertyOp51
 70
     0
102
RTVSPropertyOp52
 70
     0
102
RTVSPropertyOp53
 70
     1
102
RTVSPropertyOp54
 70
     1
102
RTVSPropertyOp55
 70
     1
102
RTVSPropertyOp56
 70
     1
102
RTVSPropertyOp57
 70
     1
102
RTVSPost2010Prop28
280
     0
102
RTVSPost2010PropOp28
 70
     1
102
RTVSPost2010Prop29
280
     1
102
RTVSPost2010PropOp29
 70
     1
102
RTVSPost2010Prop30
280
     1
102
RTVSPost2010PropOp30
 70
     1
102
RTVSPost2010Prop31
280
     0
102
RTVSPost2010PropOp31
 70
     1
102
RTVSPost2010Prop32
280
     0
102
RTVSPost2010PropOp32
 70
     1
102
RTVSPost2010Prop33
280
     0
102
RTVSPost2010PropOp33
 70
     1
102
RTVSPost2010Prop34
280
     0
102
RTVSPost2010PropOp34
 70
     1
102
RTVSPost2010Prop35
280
     0
102
RTVSPost2010PropOp35
 70
     1
102
RTVSPost2010Prop36
280
     0
102
RTVSPost2010PropOp36
 70
     1
102
RTVSPost2010Prop37
 90
       50
102
RTVSPost2010PropOp37
 70
     1
102
RTVSPost2010Prop38
140
0.0
102
RTVSPost2010PropOp38
 70
     1
102
RTVSPost2010Prop39
140
1.0
102
RTVSPost2010PropOp39
 70
     1
102
RTVSPost2010Prop40
 90
        0
102
RTVSPost2010PropOp40
 70
     1
102
RTVSPost2010Prop41ColorIndex
 90
       18
102
RTVSPost2010Prop41ColorRGB
 90
        0
102
RTVSPost2010PropOp41
 70
     1
102
RTVSPost2010Prop42
 90
       50
102
RTVSPost2010PropOp42
 70
     1
102
RTVSPost2010Prop43
 90
        3
102
RTVSPost2010PropOp43
 70
     1
102
RTVSPost2010Prop44ColorIndex
 90
        5
102
RTVSPost2010Prop44ColorRGB
 90
      255
102
RTVSPost2010PropOp44
 70
     1
102
RTVSPost2010Prop45
280
     0
102
RTVSPost2010PropOp45
 70
     1
102
RTVSPost2010Prop46
 90
       50
102
RTVSPost2010PropOp46
 70
     1
102
RTVSPost2010Prop47
 90
       50
102
RTVSPost2010PropOp47
 70
     1
102
RTVSPost2010Prop48
 90
       50
102
RTVSPost2010PropOp48
 70
     1
102
RTVSPost2010Prop49
280
     0
102
RTVSPost2010PropOp49
 70
     1
102
RTVSPost2010Prop50
 90
       50
102
RTVSPost2010PropOp50
 70
     1
102
RTVSPost2010Prop51ColorIndex
 90
      256
102
RTVSPost2010Prop51ColorRGB
 90
-16777216
102
RTVSPost2010PropOp51
 70
     0
102
RTVSPost2010Prop52
140
1.0
102
RTVSPost2010PropOp52
 70
     0
102
RTVSPost2010Prop53
 90
        0
102
RTVSPost2010PropOp53
 70
     1
102
RTVSPost2010Prop54
  1
strokes_ogs.tif
102
RTVSPost2010PropOp54
 70
     1
102
RTVSPost2010Prop55
280
     0
102
RTVSPost2010PropOp55
 70
     1
102
RTVSPost2010Prop56
140
1.0
102
RTVSPost2010PropOp56
 70
     1
102
RTVSPost2010Prop57
140
1.0
102
RTVSPost2010PropOp57
 70
     1
  0
XRECORD
  5
518
102
{ACAD_REACTORS
330
517
102
}
330
517
100
AcDbXrecord
280
     1
102
RTVSPropertyOp0
 70
     1
102
RTVSPropertyOp1
 70
     1
102
RTVSPropertyOp2
 70
     1
102
RTVSPropertyOp3
 70
     1
102
RTVSPropertyOp4
 70
     1
102
RTVSPropertyOp5
 70
     1
102
RTVSPropertyOp6
 70
     1
102
RTVSPropertyOp7
 70
     1
102
RTVSPropertyOp8
 70
     1
102
RTVSPropertyOp9
 70
     1
102
RTVSPropertyOp10
 70
     1
102
RTVSPropertyOp11
 70
     1
102
RTVSPropertyOp12
 70
     1
102
RTVSPropertyOp13
 70
     1
102
RTVSPropertyOp14
 70
     1
102
RTVSPropertyOp15
 70
     1
102
RTVSPropertyOp16
 70
     1
102
RTVSPropertyOp17
 70
     1
102
RTVSPropertyOp18
 70
     1
102
RTVSPropertyOp19
 70
     1
102
RTVSPropertyOp20
 70
     1
102
RTVSPropertyOp21
 70
     1
102
RTVSPropertyOp22
 70
     1
102
RTVSPropertyOp23
 70
     1
102
RTVSPropertyOp24
 70
     1
102
RTVSPropertyOp25
 70
     1
102
RTVSPropertyOp26
 70
     1
102
RTVSPropertyOp27
 70
     1
102
RTVSPropertyOp28
 70
     1
102
RTVSPropertyOp29
 70
     1
102
RTVSPropertyOp30
 70
     1
102
RTVSPropertyOp31
 70
     1
102
RTVSPropertyOp32
 70
     1
102
RTVSPropertyOp33
 70
     1
102
RTVSPropertyOp34
 70
     1
102
RTVSPropertyOp35
 70
     1
102
RTVSPropertyOp36
 70
     1
102
RTVSPropertyOp37
 70
     1
102
RTVSPropertyOp38
 70
     1
102
RTVSPropertyOp39
 70
     1
102
RTVSPropertyOp40
 70
     1
102
RTVSPropertyOp41
 70
     1
102
RTVSPropertyOp42
 70
     1
102
RTVSPropertyOp43
 70
     1
102
RTVSPropertyOp44
 70
     1
102
RTVSPropertyOp45
 70
     1
102
RTVSPropertyOp46
 70
     1
102
RTVSPropertyOp47
 70
     1
102
RTVSPropertyOp48
 70
     1
102
RTVSPropertyOp49
 70
     1
102
RTVSPropertyOp50
 70
     1
102
RTVSPropertyOp51
 70
     0
102
RTVSPropertyOp52
 70
     0
102
RTVSPropertyOp53
 70
     1
102
RTVSPropertyOp54
 70
     1
102
RTVSPropertyOp55
 70
     1
102
RTVSPropertyOp56
 70
     1
102
RTVSPropertyOp57
 70
     1
102
RTVSPost2010Prop28
280
     0
102
RTVSPost2010PropOp28
 70
     1
102
RTVSPost2010Prop29
280
     1
102
RTVSPost2010PropOp29
 70
     1
102
RTVSPost2010Prop30
280
     1
102
RTVSPost2010PropOp30
 70
     1
102
RTVSPost2010Prop31
280
     0
102
RTVSPost2010PropOp31
 70
     1
102
RTVSPost2010Prop32
280
     0
102
RTVSPost2010PropOp32
 70
     1
102
RTVSPost2010Prop33
280
     0
102
RTVSPost2010PropOp33
 70
     1
102
RTVSPost2010Prop34
280
     0
102
RTVSPost2010PropOp34
 70
     1
102
RTVSPost2010Prop35
280
     0
102
RTVSPost2010PropOp35
 70
     1
102
RTVSPost2010Prop36
280
     0
102
RTVSPost2010PropOp36
 70
     1
102
RTVSPost2010Prop37
 90
       50
102
RTVSPost2010PropOp37
 70
     1
102
RTVSPost2010Prop38
140
0.0
102
RTVSPost2010PropOp38
 70
     1
102
RTVSPost2010Prop39
140
1.0
102
RTVSPost2010PropOp39
 70
     1
102
RTVSPost2010Prop40
 90
        0
102
RTVSPost2010PropOp40
 70
     1
102
RTVSPost2010Prop41ColorIndex
 90
       18
102
RTVSPost2010Prop41ColorRGB
 90
        0
102
RTVSPost2010PropOp41
 70
     1
102
RTVSPost2010Prop42
 90
       50
102
RTVSPost2010PropOp42
 70
     1
102
RTVSPost2010Prop43
 90
        3
102
RTVSPost2010PropOp43
 70
     1
102
RTVSPost2010Prop44ColorIndex
 90
        5
102
RTVSPost2010Prop44ColorRGB
 90
      255
102
RTVSPost2010PropOp44
 70
     1
102
RTVSPost2010Prop45
280
     0
102
RTVSPost2010PropOp45
 70
     1
102
RTVSPost2010Prop46
 90
       50
102
RTVSPost2010PropOp46
 70
     1
102
RTVSPost2010Prop47
 90
       50
102
RTVSPost2010PropOp47
 70
     1
102
RTVSPost2010Prop48
 90
       50
102
RTVSPost2010PropOp48
 70
     1
102
RTVSPost2010Prop49
280
     0
102
RTVSPost2010PropOp49
 70
     1
102
RTVSPost2010Prop50
 90
       50
102
RTVSPost2010PropOp50
 70
     1
102
RTVSPost2010Prop51ColorIndex
 90
      256
102
RTVSPost2010Prop51ColorRGB
 90
-16777216
102
RTVSPost2010PropOp51
 70
     0
102
RTVSPost2010Prop52
140
1.0
102
RTVSPost2010PropOp52
 70
     0
102
RTVSPost2010Prop53
 90
        0
102
RTVSPost2010PropOp53
 70
     1
102
RTVSPost2010Prop54
  1
strokes_ogs.tif
102
RTVSPost2010PropOp54
 70
     1
102
RTVSPost2010Prop55
280
     0
102
RTVSPost2010PropOp55
 70
     1
102
RTVSPost2010Prop56
140
1.0
102
RTVSPost2010PropOp56
 70
     1
102
RTVSPost2010Prop57
140
1.0
102
RTVSPost2010PropOp57
 70
     1
  0
XRECORD
  5
51A
102
{ACAD_REACTORS
330
519
102
}
330
519
100
AcDbXrecord
280
     1
102
RTVSPropertyOp0
 70
     1
102
RTVSPropertyOp1
 70
     1
102
RTVSPropertyOp2
 70
     1
102
RTVSPropertyOp3
 70
     1
102
RTVSPropertyOp4
 70
     1
102
RTVSPropertyOp5
 70
     1
102
RTVSPropertyOp6
 70
     1
102
RTVSPropertyOp7
 70
     1
102
RTVSPropertyOp8
 70
     1
102
RTVSPropertyOp9
 70
     1
102
RTVSPropertyOp10
 70
     1
102
RTVSPropertyOp11
 70
     1
102
RTVSPropertyOp12
 70
     1
102
RTVSPropertyOp13
 70
     1
102
RTVSPropertyOp14
 70
     1
102
RTVSPropertyOp15
 70
     1
102
RTVSPropertyOp16
 70
     1
102
RTVSPropertyOp17
 70
     1
102
RTVSPropertyOp18
 70
     1
102
RTVSPropertyOp19
 70
     1
102
RTVSPropertyOp20
 70
     1
102
RTVSPropertyOp21
 70
     1
102
RTVSPropertyOp22
 70
     1
102
RTVSPropertyOp23
 70
     1
102
RTVSPropertyOp24
 70
     1
102
RTVSPropertyOp25
 70
     1
102
RTVSPropertyOp26
 70
     1
102
RTVSPropertyOp27
 70
     1
102
RTVSPropertyOp28
 70
     1
102
RTVSPropertyOp29
 70
     1
102
RTVSPropertyOp30
 70
     1
102
RTVSPropertyOp31
 70
     1
102
RTVSPropertyOp32
 70
     1
102
RTVSPropertyOp33
 70
     1
102
RTVSPropertyOp34
 70
     1
102
RTVSPropertyOp35
 70
     1
102
RTVSPropertyOp36
 70
     1
102
RTVSPropertyOp37
 70
     1
102
RTVSPropertyOp38
 70
     1
102
RTVSPropertyOp39
 70
     1
102
RTVSPropertyOp40
 70
     1
102
RTVSPropertyOp41
 70
     1
102
RTVSPropertyOp42
 70
     1
102
RTVSPropertyOp43
 70
     1
102
RTVSPropertyOp44
 70
     1
102
RTVSPropertyOp45
 70
     1
102
RTVSPropertyOp46
 70
     1
102
RTVSPropertyOp47
 70
     1
102
RTVSPropertyOp48
 70
     1
102
RTVSPropertyOp49
 70
     1
102
RTVSPropertyOp50
 70
     1
102
RTVSPropertyOp51
 70
     0
102
RTVSPropertyOp52
 70
     0
102
RTVSPropertyOp53
 70
     1
102
RTVSPropertyOp54
 70
     1
102
RTVSPropertyOp55
 70
     1
102
RTVSPropertyOp56
 70
     1
102
RTVSPropertyOp57
 70
     1
102
RTVSPost2010Prop28
280
     0
102
RTVSPost2010PropOp28
 70
     1
102
RTVSPost2010Prop29
280
     1
102
RTVSPost2010PropOp29
 70
     1
102
RTVSPost2010Prop30
280
     1
102
RTVSPost2010PropOp30
 70
     1
102
RTVSPost2010Prop31
280
     0
102
RTVSPost2010PropOp31
 70
     1
102
RTVSPost2010Prop32
280
     0
102
RTVSPost2010PropOp32
 70
     1
102
RTVSPost2010Prop33
280
     0
102
RTVSPost2010PropOp33
 70
     1
102
RTVSPost2010Prop34
280
     0
102
RTVSPost2010PropOp34
 70
     1
102
RTVSPost2010Prop35
280
     0
102
RTVSPost2010PropOp35
 70
     1
102
RTVSPost2010Prop36
280
     0
102
RTVSPost2010PropOp36
 70
     1
102
RTVSPost2010Prop37
 90
       50
102
RTVSPost2010PropOp37
 70
     1
102
RTVSPost2010Prop38
140
0.0
102
RTVSPost2010PropOp38
 70
     1
102
RTVSPost2010Prop39
140
1.0
102
RTVSPost2010PropOp39
 70
     1
102
RTVSPost2010Prop40
 90
        0
102
RTVSPost2010PropOp40
 70
     1
102
RTVSPost2010Prop41ColorIndex
 90
       18
102
RTVSPost2010Prop41ColorRGB
 90
        0
102
RTVSPost2010PropOp41
 70
     1
102
RTVSPost2010Prop42
 90
       50
102
RTVSPost2010PropOp42
 70
     1
102
RTVSPost2010Prop43
 90
        3
102
RTVSPost2010PropOp43
 70
     1
102
RTVSPost2010Prop44ColorIndex
 90
        5
102
RTVSPost2010Prop44ColorRGB
 90
      255
102
RTVSPost2010PropOp44
 70
     1
102
RTVSPost2010Prop45
280
     0
102
RTVSPost2010PropOp45
 70
     1
102
RTVSPost2010Prop46
 90
       50
102
RTVSPost2010PropOp46
 70
     1
102
RTVSPost2010Prop47
 90
       50
102
RTVSPost2010PropOp47
 70
     1
102
RTVSPost2010Prop48
 90
       50
102
RTVSPost2010PropOp48
 70
     1
102
RTVSPost2010Prop49
280
     0
102
RTVSPost2010PropOp49
 70
     1
102
RTVSPost2010Prop50
 90
       50
102
RTVSPost2010PropOp50
 70
     1
102
RTVSPost2010Prop51ColorIndex
 90
      256
102
RTVSPost2010Prop51ColorRGB
 90
-16777216
102
RTVSPost2010PropOp51
 70
     0
102
RTVSPost2010Prop52
140
1.0
102
RTVSPost2010PropOp52
 70
     0
102
RTVSPost2010Prop53
 90
        0
102
RTVSPost2010PropOp53
 70
     1
102
RTVSPost2010Prop54
  1
strokes_ogs.tif
102
RTVSPost2010PropOp54
 70
     1
102
RTVSPost2010Prop55
280
     0
102
RTVSPost2010PropOp55
 70
     1
102
RTVSPost2010Prop56
140
1.0
102
RTVSPost2010PropOp56
 70
     1
102
RTVSPost2010Prop57
140
1.0
102
RTVSPost2010PropOp57
 70
     1
  0
XRECORD
  5
51C
102
{ACAD_REACTORS
330
51B
102
}
330
51B
100
AcDbXrecord
280
     1
102
RTVSPropertyOp0
 70
     0
102
RTVSPropertyOp1
 70
     0
102
RTVSPropertyOp2
 70
     0
102
RTVSPropertyOp3
 70
     0
102
RTVSPropertyOp4
 70
     0
102
RTVSPropertyOp5
 70
     0
102
RTVSPropertyOp6
 70
     0
102
RTVSPropertyOp7
 70
     0
102
RTVSPropertyOp8
 70
     0
102
RTVSPropertyOp9
 70
     0
102
RTVSPropertyOp10
 70
     0
102
RTVSPropertyOp11
 70
     0
102
RTVSPropertyOp12
 70
     0
102
RTVSPropertyOp13
 70
     0
102
RTVSPropertyOp14
 70
     2
102
RTVSPropertyOp15
 70
     0
102
RTVSPropertyOp16
 70
     0
102
RTVSPropertyOp17
 70
     0
102
RTVSPropertyOp18
 70
     0
102
RTVSPropertyOp19
 70
     0
102
RTVSPropertyOp20
 70
     0
102
RTVSPropertyOp21
 70
     0
102
RTVSPropertyOp22
 70
     0
102
RTVSPropertyOp23
 70
     0
102
RTVSPropertyOp24
 70
     0
102
RTVSPropertyOp25
 70
     0
102
RTVSPropertyOp26
 70
     0
102
RTVSPropertyOp27
 70
     0
102
RTVSPropertyOp28
 70
     1
102
RTVSPropertyOp29
 70
     1
102
RTVSPropertyOp30
 70
     1
102
RTVSPropertyOp31
 70
     1
102
RTVSPropertyOp32
 70
     1
102
RTVSPropertyOp33
 70
     1
102
RTVSPropertyOp34
 70
     1
102
RTVSPropertyOp35
 70
     1
102
RTVSPropertyOp36
 70
     1
102
RTVSPropertyOp37
 70
     1
102
RTVSPropertyOp38
 70
     1
102
RTVSPropertyOp39
 70
     1
102
RTVSPropertyOp40
 70
     1
102
RTVSPropertyOp41
 70
     1
102
RTVSPropertyOp42
 70
     1
102
RTVSPropertyOp43
 70
     1
102
RTVSPropertyOp44
 70
     1
102
RTVSPropertyOp45
 70
     1
102
RTVSPropertyOp46
 70
     1
102
RTVSPropertyOp47
 70
     1
102
RTVSPropertyOp48
 70
     1
102
RTVSPropertyOp49
 70
     1
102
RTVSPropertyOp50
 70
     1
102
RTVSPropertyOp51
 70
     0
102
RTVSPropertyOp52
 70
     0
102
RTVSPropertyOp53
 70
     1
102
RTVSPropertyOp54
 70
     1
102
RTVSPropertyOp55
 70
     1
102
RTVSPropertyOp56
 70
     1
102
RTVSPropertyOp57
 70
     1
102
RTVSPost2010Prop28
280
     0
102
RTVSPost2010PropOp28
 70
     1
102
RTVSPost2010Prop29
280
     1
102
RTVSPost2010PropOp29
 70
     1
102
RTVSPost2010Prop30
280
     1
102
RTVSPost2010PropOp30
 70
     1
102
RTVSPost2010Prop31
280
     0
102
RTVSPost2010PropOp31
 70
     1
102
RTVSPost2010Prop32
280
     0
102
RTVSPost2010PropOp32
 70
     1
102
RTVSPost2010Prop33
280
     0
102
RTVSPost2010PropOp33
 70
     1
102
RTVSPost2010Prop34
280
     0
102
RTVSPost2010PropOp34
 70
     1
102
RTVSPost2010Prop35
280
     0
102
RTVSPost2010PropOp35
 70
     1
102
RTVSPost2010Prop36
280
     0
102
RTVSPost2010PropOp36
 70
     1
102
RTVSPost2010Prop37
 90
       50
102
RTVSPost2010PropOp37
 70
     1
102
RTVSPost2010Prop38
140
0.0
102
RTVSPost2010PropOp38
 70
     1
102
RTVSPost2010Prop39
140
1.0
102
RTVSPost2010PropOp39
 70
     1
102
RTVSPost2010Prop40
 90
        0
102
RTVSPost2010PropOp40
 70
     1
102
RTVSPost2010Prop41ColorIndex
 90
       18
102
RTVSPost2010Prop41ColorRGB
 90
        0
102
RTVSPost2010PropOp41
 70
     1
102
RTVSPost2010Prop42
 90
       50
102
RTVSPost2010PropOp42
 70
     1
102
RTVSPost2010Prop43
 90
        3
102
RTVSPost2010PropOp43
 70
     1
102
RTVSPost2010Prop44ColorIndex
 90
        5
102
RTVSPost2010Prop44ColorRGB
 90
      255
102
RTVSPost2010PropOp44
 70
     1
102
RTVSPost2010Prop45
280
     0
102
RTVSPost2010PropOp45
 70
     1
102
RTVSPost2010Prop46
 90
       50
102
RTVSPost2010PropOp46
 70
     1
102
RTVSPost2010Prop47
 90
       50
102
RTVSPost2010PropOp47
 70
     1
102
RTVSPost2010Prop48
 90
       50
102
RTVSPost2010PropOp48
 70
     1
102
RTVSPost2010Prop49
280
     0
102
RTVSPost2010PropOp49
 70
     1
102
RTVSPost2010Prop50
 90
       50
102
RTVSPost2010PropOp50
 70
     1
102
RTVSPost2010Prop51ColorIndex
 90
      256
102
RTVSPost2010Prop51ColorRGB
 90
-16777216
102
RTVSPost2010PropOp51
 70
     0
102
RTVSPost2010Prop52
140
1.0
102
RTVSPost2010PropOp52
 70
     0
102
RTVSPost2010Prop53
 90
        0
102
RTVSPost2010PropOp53
 70
     1
102
RTVSPost2010Prop54
  1
strokes_ogs.tif
102
RTVSPost2010PropOp54
 70
     1
102
RTVSPost2010Prop55
280
     0
102
RTVSPost2010PropOp55
 70
     1
102
RTVSPost2010Prop56
140
1.0
102
RTVSPost2010PropOp56
 70
     1
102
RTVSPost2010Prop57
140
1.0
102
RTVSPost2010PropOp57
 70
     1
  0
XRECORD
  5
51E
102
{ACAD_REACTORS
330
51D
102
}
330
51D
100
AcDbXrecord
280
     1
102
RTVSPropertyOp0
 70
     1
102
RTVSPropertyOp1
 70
     1
102
RTVSPropertyOp2
 70
     1
102
RTVSPropertyOp3
 70
     1
102
RTVSPropertyOp4
 70
     1
102
RTVSPropertyOp5
 70
     1
102
RTVSPropertyOp6
 70
     1
102
RTVSPropertyOp7
 70
     1
102
RTVSPropertyOp8
 70
     1
102
RTVSPropertyOp9
 70
     1
102
RTVSPropertyOp10
 70
     1
102
RTVSPropertyOp11
 70
     1
102
RTVSPropertyOp12
 70
     1
102
RTVSPropertyOp13
 70
     1
102
RTVSPropertyOp14
 70
     1
102
RTVSPropertyOp15
 70
     1
102
RTVSPropertyOp16
 70
     1
102
RTVSPropertyOp17
 70
     1
102
RTVSPropertyOp18
 70
     1
102
RTVSPropertyOp19
 70
     1
102
RTVSPropertyOp20
 70
     1
102
RTVSPropertyOp21
 70
     1
102
RTVSPropertyOp22
 70
     1
102
RTVSPropertyOp23
 70
     1
102
RTVSPropertyOp24
 70
     1
102
RTVSPropertyOp25
 70
     1
102
RTVSPropertyOp26
 70
     1
102
RTVSPropertyOp27
 70
     1
102
RTVSPropertyOp28
 70
     1
102
RTVSPropertyOp29
 70
     1
102
RTVSPropertyOp30
 70
     1
102
RTVSPropertyOp31
 70
     1
102
RTVSPropertyOp32
 70
     1
102
RTVSPropertyOp33
 70
     1
102
RTVSPropertyOp34
 70
     1
102
RTVSPropertyOp35
 70
     1
102
RTVSPropertyOp36
 70
     1
102
RTVSPropertyOp37
 70
     1
102
RTVSPropertyOp38
 70
     1
102
RTVSPropertyOp39
 70
     1
102
RTVSPropertyOp40
 70
     1
102
RTVSPropertyOp41
 70
     1
102
RTVSPropertyOp42
 70
     1
102
RTVSPropertyOp43
 70
     1
102
RTVSPropertyOp44
 70
     1
102
RTVSPropertyOp45
 70
     1
102
RTVSPropertyOp46
 70
     1
102
RTVSPropertyOp47
 70
     1
102
RTVSPropertyOp48
 70
     1
102
RTVSPropertyOp49
 70
     1
102
RTVSPropertyOp50
 70
     1
102
RTVSPropertyOp51
 70
     0
102
RTVSPropertyOp52
 70
     0
102
RTVSPropertyOp53
 70
     1
102
RTVSPropertyOp54
 70
     1
102
RTVSPropertyOp55
 70
     1
102
RTVSPropertyOp56
 70
     1
102
RTVSPropertyOp57
 70
     1
102
RTVSPost2010Prop28
280
     0
102
RTVSPost2010PropOp28
 70
     1
102
RTVSPost2010Prop29
280
     1
102
RTVSPost2010PropOp29
 70
     1
102
RTVSPost2010Prop30
280
     1
102
RTVSPost2010PropOp30
 70
     1
102
RTVSPost2010Prop31
280
     0
102
RTVSPost2010PropOp31
 70
     1
102
RTVSPost2010Prop32
280
     0
102
RTVSPost2010PropOp32
 70
     1
102
RTVSPost2010Prop33
280
     0
102
RTVSPost2010PropOp33
 70
     1
102
RTVSPost2010Prop34
280
     0
102
RTVSPost2010PropOp34
 70
     1
102
RTVSPost2010Prop35
280
     0
102
RTVSPost2010PropOp35
 70
     1
102
RTVSPost2010Prop36
280
     0
102
RTVSPost2010PropOp36
 70
     1
102
RTVSPost2010Prop37
 90
       50
102
RTVSPost2010PropOp37
 70
     1
102
RTVSPost2010Prop38
140
0.0
102
RTVSPost2010PropOp38
 70
     1
102
RTVSPost2010Prop39
140
1.0
102
RTVSPost2010PropOp39
 70
     1
102
RTVSPost2010Prop40
 90
        0
102
RTVSPost2010PropOp40
 70
     1
102
RTVSPost2010Prop41ColorIndex
 90
       18
102
RTVSPost2010Prop41ColorRGB
 90
        0
102
RTVSPost2010PropOp41
 70
     1
102
RTVSPost2010Prop42
 90
       50
102
RTVSPost2010PropOp42
 70
     1
102
RTVSPost2010Prop43
 90
        3
102
RTVSPost2010PropOp43
 70
     1
102
RTVSPost2010Prop44ColorIndex
 90
        5
102
RTVSPost2010Prop44ColorRGB
 90
      255
102
RTVSPost2010PropOp44
 70
     1
102
RTVSPost2010Prop45
280
     0
102
RTVSPost2010PropOp45
 70
     1
102
RTVSPost2010Prop46
 90
       50
102
RTVSPost2010PropOp46
 70
     1
102
RTVSPost2010Prop47
 90
       50
102
RTVSPost2010PropOp47
 70
     1
102
RTVSPost2010Prop48
 90
       50
102
RTVSPost2010PropOp48
 70
     1
102
RTVSPost2010Prop49
280
     0
102
RTVSPost2010PropOp49
 70
     1
102
RTVSPost2010Prop50
 90
       50
102
RTVSPost2010PropOp50
 70
     1
102
RTVSPost2010Prop51ColorIndex
 90
      256
102
RTVSPost2010Prop51ColorRGB
 90
-16777216
102
RTVSPost2010PropOp51
 70
     0
102
RTVSPost2010Prop52
140
1.0
102
RTVSPost2010PropOp52
 70
     0
102
RTVSPost2010Prop53
 90
        0
102
RTVSPost2010PropOp53
 70
     1
102
RTVSPost2010Prop54
  1
strokes_ogs.tif
102
RTVSPost2010PropOp54
 70
     1
102
RTVSPost2010Prop55
280
     0
102
RTVSPost2010PropOp55
 70
     1
102
RTVSPost2010Prop56
140
1.0
102
RTVSPost2010PropOp56
 70
     1
102
RTVSPost2010Prop57
140
1.0
102
RTVSPost2010PropOp57
 70
     1
  0
XRECORD
  5
520
102
{ACAD_REACTORS
330
51F
102
}
330
51F
100
AcDbXrecord
280
     1
102
RTVSPropertyOp0
 70
     1
102
RTVSPropertyOp1
 70
     1
102
RTVSPropertyOp2
 70
     1
102
RTVSPropertyOp3
 70
     1
102
RTVSPropertyOp4
 70
     1
102
RTVSPropertyOp5
 70
     1
102
RTVSPropertyOp6
 70
     1
102
RTVSPropertyOp7
 70
     1
102
RTVSPropertyOp8
 70
     1
102
RTVSPropertyOp9
 70
     1
102
RTVSPropertyOp10
 70
     1
102
RTVSPropertyOp11
 70
     1
102
RTVSPropertyOp12
 70
     1
102
RTVSPropertyOp13
 70
     1
102
RTVSPropertyOp14
 70
     1
102
RTVSPropertyOp15
 70
     1
102
RTVSPropertyOp16
 70
     1
102
RTVSPropertyOp17
 70
     1
102
RTVSPropertyOp18
 70
     1
102
RTVSPropertyOp19
 70
     1
102
RTVSPropertyOp20
 70
     1
102
RTVSPropertyOp21
 70
     1
102
RTVSPropertyOp22
 70
     1
102
RTVSPropertyOp23
 70
     1
102
RTVSPropertyOp24
 70
     1
102
RTVSPropertyOp25
 70
     1
102
RTVSPropertyOp26
 70
     1
102
RTVSPropertyOp27
 70
     1
102
RTVSPropertyOp28
 70
     1
102
RTVSPropertyOp29
 70
     1
102
RTVSPropertyOp30
 70
     1
102
RTVSPropertyOp31
 70
     1
102
RTVSPropertyOp32
 70
     1
102
RTVSPropertyOp33
 70
     1
102
RTVSPropertyOp34
 70
     1
102
RTVSPropertyOp35
 70
     1
102
RTVSPropertyOp36
 70
     1
102
RTVSPropertyOp37
 70
     1
102
RTVSPropertyOp38
 70
     1
102
RTVSPropertyOp39
 70
     1
102
RTVSPropertyOp40
 70
     1
102
RTVSPropertyOp41
 70
     1
102
RTVSPropertyOp42
 70
     1
102
RTVSPropertyOp43
 70
     1
102
RTVSPropertyOp44
 70
     1
102
RTVSPropertyOp45
 70
     1
102
RTVSPropertyOp46
 70
     1
102
RTVSPropertyOp47
 70
     1
102
RTVSPropertyOp48
 70
     1
102
RTVSPropertyOp49
 70
     1
102
RTVSPropertyOp50
 70
     1
102
RTVSPropertyOp51
 70
     0
102
RTVSPropertyOp52
 70
     0
102
RTVSPropertyOp53
 70
     1
102
RTVSPropertyOp54
 70
     1
102
RTVSPropertyOp55
 70
     1
102
RTVSPropertyOp56
 70
     1
102
RTVSPropertyOp57
 70
     1
102
RTVSPost2010Prop28
280
     0
102
RTVSPost2010PropOp28
 70
     1
102
RTVSPost2010Prop29
280
     1
102
RTVSPost2010PropOp29
 70
     1
102
RTVSPost2010Prop30
280
     1
102
RTVSPost2010PropOp30
 70
     1
102
RTVSPost2010Prop31
280
     0
102
RTVSPost2010PropOp31
 70
     1
102
RTVSPost2010Prop32
280
     0
102
RTVSPost2010PropOp32
 70
     1
102
RTVSPost2010Prop33
280
     0
102
RTVSPost2010PropOp33
 70
     1
102
RTVSPost2010Prop34
280
     0
102
RTVSPost2010PropOp34
 70
     1
102
RTVSPost2010Prop35
280
     0
102
RTVSPost2010PropOp35
 70
     1
102
RTVSPost2010Prop36
280
     0
102
RTVSPost2010PropOp36
 70
     1
102
RTVSPost2010Prop37
 90
       50
102
RTVSPost2010PropOp37
 70
     1
102
RTVSPost2010Prop38
140
0.0
102
RTVSPost2010PropOp38
 70
     1
102
RTVSPost2010Prop39
140
1.0
102
RTVSPost2010PropOp39
 70
     1
102
RTVSPost2010Prop40
 90
        0
102
RTVSPost2010PropOp40
 70
     1
102
RTVSPost2010Prop41ColorIndex
 90
       18
102
RTVSPost2010Prop41ColorRGB
 90
        0
102
RTVSPost2010PropOp41
 70
     1
102
RTVSPost2010Prop42
 90
       50
102
RTVSPost2010PropOp42
 70
     1
102
RTVSPost2010Prop43
 90
        3
102
RTVSPost2010PropOp43
 70
     1
102
RTVSPost2010Prop44ColorIndex
 90
        5
102
RTVSPost2010Prop44ColorRGB
 90
      255
102
RTVSPost2010PropOp44
 70
     1
102
RTVSPost2010Prop45
280
     0
102
RTVSPost2010PropOp45
 70
     1
102
RTVSPost2010Prop46
 90
       50
102
RTVSPost2010PropOp46
 70
     1
102
RTVSPost2010Prop47
 90
       50
102
RTVSPost2010PropOp47
 70
     1
102
RTVSPost2010Prop48
 90
       50
102
RTVSPost2010PropOp48
 70
     1
102
RTVSPost2010Prop49
280
     0
102
RTVSPost2010PropOp49
 70
     1
102
RTVSPost2010Prop50
 90
       50
102
RTVSPost2010PropOp50
 70
     1
102
RTVSPost2010Prop51ColorIndex
 90
      256
102
RTVSPost2010Prop51ColorRGB
 90
-16777216
102
RTVSPost2010PropOp51
 70
     0
102
RTVSPost2010Prop52
140
1.0
102
RTVSPost2010PropOp52
 70
     0
102
RTVSPost2010Prop53
 90
        0
102
RTVSPost2010PropOp53
 70
     1
102
RTVSPost2010Prop54
  1
strokes_ogs.tif
102
RTVSPost2010PropOp54
 70
     1
102
RTVSPost2010Prop55
280
     0
102
RTVSPost2010PropOp55
 70
     1
102
RTVSPost2010Prop56
140
1.0
102
RTVSPost2010PropOp56
 70
     1
102
RTVSPost2010Prop57
140
1.0
102
RTVSPost2010PropOp57
 70
     1
  0
XRECORD
  5
522
102
{ACAD_REACTORS
330
521
102
}
330
521
100
AcDbXrecord
280
     1
102
RTVSPropertyOp0
 70
     1
102
RTVSPropertyOp1
 70
     1
102
RTVSPropertyOp2
 70
     1
102
RTVSPropertyOp3
 70
     1
102
RTVSPropertyOp4
 70
     1
102
RTVSPropertyOp5
 70
     1
102
RTVSPropertyOp6
 70
     1
102
RTVSPropertyOp7
 70
     1
102
RTVSPropertyOp8
 70
     1
102
RTVSPropertyOp9
 70
     1
102
RTVSPropertyOp10
 70
     1
102
RTVSPropertyOp11
 70
     1
102
RTVSPropertyOp12
 70
     1
102
RTVSPropertyOp13
 70
     1
102
RTVSPropertyOp14
 70
     1
102
RTVSPropertyOp15
 70
     1
102
RTVSPropertyOp16
 70
     1
102
RTVSPropertyOp17
 70
     1
102
RTVSPropertyOp18
 70
     1
102
RTVSPropertyOp19
 70
     1
102
RTVSPropertyOp20
 70
     1
102
RTVSPropertyOp21
 70
     1
102
RTVSPropertyOp22
 70
     1
102
RTVSPropertyOp23
 70
     1
102
RTVSPropertyOp24
 70
     1
102
RTVSPropertyOp25
 70
     1
102
RTVSPropertyOp26
 70
     1
102
RTVSPropertyOp27
 70
     1
102
RTVSPropertyOp28
 70
     1
102
RTVSPropertyOp29
 70
     1
102
RTVSPropertyOp30
 70
     1
102
RTVSPropertyOp31
 70
     1
102
RTVSPropertyOp32
 70
     1
102
RTVSPropertyOp33
 70
     1
102
RTVSPropertyOp34
 70
     1
102
RTVSPropertyOp35
 70
     1
102
RTVSPropertyOp36
 70
     1
102
RTVSPropertyOp37
 70
     1
102
RTVSPropertyOp38
 70
     1
102
RTVSPropertyOp39
 70
     1
102
RTVSPropertyOp40
 70
     1
102
RTVSPropertyOp41
 70
     1
102
RTVSPropertyOp42
 70
     1
102
RTVSPropertyOp43
 70
     1
102
RTVSPropertyOp44
 70
     1
102
RTVSPropertyOp45
 70
     1
102
RTVSPropertyOp46
 70
     1
102
RTVSPropertyOp47
 70
     1
102
RTVSPropertyOp48
 70
     1
102
RTVSPropertyOp49
 70
     1
102
RTVSPropertyOp50
 70
     1
102
RTVSPropertyOp51
 70
     0
102
RTVSPropertyOp52
 70
     0
102
RTVSPropertyOp53
 70
     1
102
RTVSPropertyOp54
 70
     1
102
RTVSPropertyOp55
 70
     1
102
RTVSPropertyOp56
 70
     1
102
RTVSPropertyOp57
 70
     1
102
RTVSPost2010Prop28
280
     0
102
RTVSPost2010PropOp28
 70
     1
102
RTVSPost2010Prop29
280
     1
102
RTVSPost2010PropOp29
 70
     1
102
RTVSPost2010Prop30
280
     1
102
RTVSPost2010PropOp30
 70
     1
102
RTVSPost2010Prop31
280
     0
102
RTVSPost2010PropOp31
 70
     1
102
RTVSPost2010Prop32
280
     0
102
RTVSPost2010PropOp32
 70
     1
102
RTVSPost2010Prop33
280
     0
102
RTVSPost2010PropOp33
 70
     1
102
RTVSPost2010Prop34
280
     0
102
RTVSPost2010PropOp34
 70
     1
102
RTVSPost2010Prop35
280
     0
102
RTVSPost2010PropOp35
 70
     1
102
RTVSPost2010Prop36
280
     0
102
RTVSPost2010PropOp36
 70
     1
102
RTVSPost2010Prop37
 90
       50
102
RTVSPost2010PropOp37
 70
     1
102
RTVSPost2010Prop38
140
0.0
102
RTVSPost2010PropOp38
 70
     1
102
RTVSPost2010Prop39
140
1.0
102
RTVSPost2010PropOp39
 70
     1
102
RTVSPost2010Prop40
 90
        0
102
RTVSPost2010PropOp40
 70
     1
102
RTVSPost2010Prop41ColorIndex
 90
       18
102
RTVSPost2010Prop41ColorRGB
 90
        0
102
RTVSPost2010PropOp41
 70
     1
102
RTVSPost2010Prop42
 90
       50
102
RTVSPost2010PropOp42
 70
     1
102
RTVSPost2010Prop43
 90
        3
102
RTVSPost2010PropOp43
 70
     1
102
RTVSPost2010Prop44ColorIndex
 90
        5
102
RTVSPost2010Prop44ColorRGB
 90
      255
102
RTVSPost2010PropOp44
 70
     1
102
RTVSPost2010Prop45
280
     0
102
RTVSPost2010PropOp45
 70
     1
102
RTVSPost2010Prop46
 90
       50
102
RTVSPost2010PropOp46
 70
     1
102
RTVSPost2010Prop47
 90
       50
102
RTVSPost2010PropOp47
 70
     1
102
RTVSPost2010Prop48
 90
       50
102
RTVSPost2010PropOp48
 70
     1
102
RTVSPost2010Prop49
280
     0
102
RTVSPost2010PropOp49
 70
     1
102
RTVSPost2010Prop50
 90
       50
102
RTVSPost2010PropOp50
 70
     1
102
RTVSPost2010Prop51ColorIndex
 90
      256
102
RTVSPost2010Prop51ColorRGB
 90
-16777216
102
RTVSPost2010PropOp51
 70
     0
102
RTVSPost2010Prop52
140
1.0
102
RTVSPost2010PropOp52
 70
     0
102
RTVSPost2010Prop53
 90
        0
102
RTVSPost2010PropOp53
 70
     1
102
RTVSPost2010Prop54
  1
strokes_ogs.tif
102
RTVSPost2010PropOp54
 70
     1
102
RTVSPost2010Prop55
280
     0
102
RTVSPost2010PropOp55
 70
     1
102
RTVSPost2010Prop56
140
1.0
102
RTVSPost2010PropOp56
 70
     1
102
RTVSPost2010Prop57
140
1.0
102
RTVSPost2010PropOp57
 70
     1
  0
XRECORD
  5
524
102
{ACAD_REACTORS
330
523
102
}
330
523
100
AcDbXrecord
280
     1
102
RTVSPropertyOp0
 70
     1
102
RTVSPropertyOp1
 70
     1
102
RTVSPropertyOp2
 70
     1
102
RTVSPropertyOp3
 70
     1
102
RTVSPropertyOp4
 70
     1
102
RTVSPropertyOp5
 70
     1
102
RTVSPropertyOp6
 70
     1
102
RTVSPropertyOp7
 70
     1
102
RTVSPropertyOp8
 70
     1
102
RTVSPropertyOp9
 70
     1
102
RTVSPropertyOp10
 70
     1
102
RTVSPropertyOp11
 70
     1
102
RTVSPropertyOp12
 70
     1
102
RTVSPropertyOp13
 70
     1
102
RTVSPropertyOp14
 70
     1
102
RTVSPropertyOp15
 70
     1
102
RTVSPropertyOp16
 70
     1
102
RTVSPropertyOp17
 70
     1
102
RTVSPropertyOp18
 70
     1
102
RTVSPropertyOp19
 70
     1
102
RTVSPropertyOp20
 70
     1
102
RTVSPropertyOp21
 70
     1
102
RTVSPropertyOp22
 70
     1
102
RTVSPropertyOp23
 70
     1
102
RTVSPropertyOp24
 70
     1
102
RTVSPropertyOp25
 70
     1
102
RTVSPropertyOp26
 70
     1
102
RTVSPropertyOp27
 70
     1
102
RTVSPropertyOp28
 70
     1
102
RTVSPropertyOp29
 70
     1
102
RTVSPropertyOp30
 70
     1
102
RTVSPropertyOp31
 70
     1
102
RTVSPropertyOp32
 70
     1
102
RTVSPropertyOp33
 70
     1
102
RTVSPropertyOp34
 70
     1
102
RTVSPropertyOp35
 70
     1
102
RTVSPropertyOp36
 70
     1
102
RTVSPropertyOp37
 70
     1
102
RTVSPropertyOp38
 70
     1
102
RTVSPropertyOp39
 70
     1
102
RTVSPropertyOp40
 70
     1
102
RTVSPropertyOp41
 70
     1
102
RTVSPropertyOp42
 70
     1
102
RTVSPropertyOp43
 70
     1
102
RTVSPropertyOp44
 70
     1
102
RTVSPropertyOp45
 70
     1
102
RTVSPropertyOp46
 70
     1
102
RTVSPropertyOp47
 70
     1
102
RTVSPropertyOp48
 70
     1
102
RTVSPropertyOp49
 70
     1
102
RTVSPropertyOp50
 70
     1
102
RTVSPropertyOp51
 70
     0
102
RTVSPropertyOp52
 70
     0
102
RTVSPropertyOp53
 70
     1
102
RTVSPropertyOp54
 70
     1
102
RTVSPropertyOp55
 70
     1
102
RTVSPropertyOp56
 70
     1
102
RTVSPropertyOp57
 70
     1
102
RTVSPost2010Prop28
280
     0
102
RTVSPost2010PropOp28
 70
     1
102
RTVSPost2010Prop29
280
     1
102
RTVSPost2010PropOp29
 70
     1
102
RTVSPost2010Prop30
280
     1
102
RTVSPost2010PropOp30
 70
     1
102
RTVSPost2010Prop31
280
     0
102
RTVSPost2010PropOp31
 70
     1
102
RTVSPost2010Prop32
280
     0
102
RTVSPost2010PropOp32
 70
     1
102
RTVSPost2010Prop33
280
     0
102
RTVSPost2010PropOp33
 70
     1
102
RTVSPost2010Prop34
280
     0
102
RTVSPost2010PropOp34
 70
     1
102
RTVSPost2010Prop35
280
     0
102
RTVSPost2010PropOp35
 70
     1
102
RTVSPost2010Prop36
280
     0
102
RTVSPost2010PropOp36
 70
     1
102
RTVSPost2010Prop37
 90
       50
102
RTVSPost2010PropOp37
 70
     1
102
RTVSPost2010Prop38
140
0.0
102
RTVSPost2010PropOp38
 70
     1
102
RTVSPost2010Prop39
140
1.0
102
RTVSPost2010PropOp39
 70
     1
102
RTVSPost2010Prop40
 90
        0
102
RTVSPost2010PropOp40
 70
     1
102
RTVSPost2010Prop41ColorIndex
 90
       18
102
RTVSPost2010Prop41ColorRGB
 90
        0
102
RTVSPost2010PropOp41
 70
     1
102
RTVSPost2010Prop42
 90
       50
102
RTVSPost2010PropOp42
 70
     1
102
RTVSPost2010Prop43
 90
        3
102
RTVSPost2010PropOp43
 70
     1
102
RTVSPost2010Prop44ColorIndex
 90
        5
102
RTVSPost2010Prop44ColorRGB
 90
      255
102
RTVSPost2010PropOp44
 70
     1
102
RTVSPost2010Prop45
280
     0
102
RTVSPost2010PropOp45
 70
     1
102
RTVSPost2010Prop46
 90
       50
102
RTVSPost2010PropOp46
 70
     1
102
RTVSPost2010Prop47
 90
       50
102
RTVSPost2010PropOp47
 70
     1
102
RTVSPost2010Prop48
 90
       50
102
RTVSPost2010PropOp48
 70
     1
102
RTVSPost2010Prop49
280
     0
102
RTVSPost2010PropOp49
 70
     1
102
RTVSPost2010Prop50
 90
       50
102
RTVSPost2010PropOp50
 70
     1
102
RTVSPost2010Prop51ColorIndex
 90
      256
102
RTVSPost2010Prop51ColorRGB
 90
-16777216
102
RTVSPost2010PropOp51
 70
     0
102
RTVSPost2010Prop52
140
1.0
102
RTVSPost2010PropOp52
 70
     0
102
RTVSPost2010Prop53
 90
        0
102
RTVSPost2010PropOp53
 70
     1
102
RTVSPost2010Prop54
  1
strokes_ogs.tif
102
RTVSPost2010PropOp54
 70
     1
102
RTVSPost2010Prop55
280
     0
102
RTVSPost2010PropOp55
 70
     1
102
RTVSPost2010Prop56
140
1.0
102
RTVSPost2010PropOp56
 70
     1
102
RTVSPost2010Prop57
140
1.0
102
RTVSPost2010PropOp57
 70
     1
  0
XRECORD
  5
526
102
{ACAD_REACTORS
330
525
102
}
330
525
100
AcDbXrecord
280
     1
102
RTVSPropertyOp0
 70
     1
102
RTVSPropertyOp1
 70
     1
102
RTVSPropertyOp2
 70
     1
102
RTVSPropertyOp3
 70
     1
102
RTVSPropertyOp4
 70
     1
102
RTVSPropertyOp5
 70
     1
102
RTVSPropertyOp6
 70
     1
102
RTVSPropertyOp7
 70
     1
102
RTVSPropertyOp8
 70
     1
102
RTVSPropertyOp9
 70
     1
102
RTVSPropertyOp10
 70
     1
102
RTVSPropertyOp11
 70
     1
102
RTVSPropertyOp12
 70
     1
102
RTVSPropertyOp13
 70
     1
102
RTVSPropertyOp14
 70
     1
102
RTVSPropertyOp15
 70
     1
102
RTVSPropertyOp16
 70
     1
102
RTVSPropertyOp17
 70
     1
102
RTVSPropertyOp18
 70
     1
102
RTVSPropertyOp19
 70
     1
102
RTVSPropertyOp20
 70
     1
102
RTVSPropertyOp21
 70
     1
102
RTVSPropertyOp22
 70
     1
102
RTVSPropertyOp23
 70
     1
102
RTVSPropertyOp24
 70
     1
102
RTVSPropertyOp25
 70
     1
102
RTVSPropertyOp26
 70
     1
102
RTVSPropertyOp27
 70
     1
102
RTVSPropertyOp28
 70
     1
102
RTVSPropertyOp29
 70
     1
102
RTVSPropertyOp30
 70
     1
102
RTVSPropertyOp31
 70
     1
102
RTVSPropertyOp32
 70
     1
102
RTVSPropertyOp33
 70
     1
102
RTVSPropertyOp34
 70
     1
102
RTVSPropertyOp35
 70
     1
102
RTVSPropertyOp36
 70
     1
102
RTVSPropertyOp37
 70
     1
102
RTVSPropertyOp38
 70
     1
102
RTVSPropertyOp39
 70
     1
102
RTVSPropertyOp40
 70
     1
102
RTVSPropertyOp41
 70
     1
102
RTVSPropertyOp42
 70
     1
102
RTVSPropertyOp43
 70
     1
102
RTVSPropertyOp44
 70
     1
102
RTVSPropertyOp45
 70
     1
102
RTVSPropertyOp46
 70
     1
102
RTVSPropertyOp47
 70
     1
102
RTVSPropertyOp48
 70
     1
102
RTVSPropertyOp49
 70
     1
102
RTVSPropertyOp50
 70
     1
102
RTVSPropertyOp51
 70
     0
102
RTVSPropertyOp52
 70
     0
102
RTVSPropertyOp53
 70
     1
102
RTVSPropertyOp54
 70
     1
102
RTVSPropertyOp55
 70
     1
102
RTVSPropertyOp56
 70
     1
102
RTVSPropertyOp57
 70
     1
102
RTVSPost2010Prop28
280
     0
102
RTVSPost2010PropOp28
 70
     1
102
RTVSPost2010Prop29
280
     1
102
RTVSPost2010PropOp29
 70
     1
102
RTVSPost2010Prop30
280
     1
102
RTVSPost2010PropOp30
 70
     1
102
RTVSPost2010Prop31
280
     0
102
RTVSPost2010PropOp31
 70
     1
102
RTVSPost2010Prop32
280
     0
102
RTVSPost2010PropOp32
 70
     1
102
RTVSPost2010Prop33
280
     0
102
RTVSPost2010PropOp33
 70
     1
102
RTVSPost2010Prop34
280
     0
102
RTVSPost2010PropOp34
 70
     1
102
RTVSPost2010Prop35
280
     0
102
RTVSPost2010PropOp35
 70
     1
102
RTVSPost2010Prop36
280
     0
102
RTVSPost2010PropOp36
 70
     1
102
RTVSPost2010Prop37
 90
       50
102
RTVSPost2010PropOp37
 70
     1
102
RTVSPost2010Prop38
140
0.0
102
RTVSPost2010PropOp38
 70
     1
102
RTVSPost2010Prop39
140
1.0
102
RTVSPost2010PropOp39
 70
     1
102
RTVSPost2010Prop40
 90
        0
102
RTVSPost2010PropOp40
 70
     1
102
RTVSPost2010Prop41ColorIndex
 90
       18
102
RTVSPost2010Prop41ColorRGB
 90
        0
102
RTVSPost2010PropOp41
 70
     1
102
RTVSPost2010Prop42
 90
       50
102
RTVSPost2010PropOp42
 70
     1
102
RTVSPost2010Prop43
 90
        3
102
RTVSPost2010PropOp43
 70
     1
102
RTVSPost2010Prop44ColorIndex
 90
        5
102
RTVSPost2010Prop44ColorRGB
 90
      255
102
RTVSPost2010PropOp44
 70
     1
102
RTVSPost2010Prop45
280
     0
102
RTVSPost2010PropOp45
 70
     1
102
RTVSPost2010Prop46
 90
       50
102
RTVSPost2010PropOp46
 70
     1
102
RTVSPost2010Prop47
 90
       50
102
RTVSPost2010PropOp47
 70
     1
102
RTVSPost2010Prop48
 90
       50
102
RTVSPost2010PropOp48
 70
     1
102
RTVSPost2010Prop49
280
     0
102
RTVSPost2010PropOp49
 70
     1
102
RTVSPost2010Prop50
 90
       50
102
RTVSPost2010PropOp50
 70
     1
102
RTVSPost2010Prop51ColorIndex
 90
      256
102
RTVSPost2010Prop51ColorRGB
 90
-16777216
102
RTVSPost2010PropOp51
 70
     0
102
RTVSPost2010Prop52
140
1.0
102
RTVSPost2010PropOp52
 70
     0
102
RTVSPost2010Prop53
 90
        0
102
RTVSPost2010PropOp53
 70
     1
102
RTVSPost2010Prop54
  1
strokes_ogs.tif
102
RTVSPost2010PropOp54
 70
     1
102
RTVSPost2010Prop55
280
     0
102
RTVSPost2010PropOp55
 70
     1
102
RTVSPost2010Prop56
140
1.0
102
RTVSPost2010PropOp56
 70
     1
102
RTVSPost2010Prop57
140
1.0
102
RTVSPost2010PropOp57
 70
     1
  0
XRECORD
  5
528
102
{ACAD_REACTORS
330
527
102
}
330
527
100
AcDbXrecord
280
     1
102
RTVSPropertyOp0
 70
     1
102
RTVSPropertyOp1
 70
     1
102
RTVSPropertyOp2
 70
     1
102
RTVSPropertyOp3
 70
     1
102
RTVSPropertyOp4
 70
     1
102
RTVSPropertyOp5
 70
     1
102
RTVSPropertyOp6
 70
     1
102
RTVSPropertyOp7
 70
     1
102
RTVSPropertyOp8
 70
     1
102
RTVSPropertyOp9
 70
     1
102
RTVSPropertyOp10
 70
     1
102
RTVSPropertyOp11
 70
     1
102
RTVSPropertyOp12
 70
     1
102
RTVSPropertyOp13
 70
     1
102
RTVSPropertyOp14
 70
     1
102
RTVSPropertyOp15
 70
     1
102
RTVSPropertyOp16
 70
     1
102
RTVSPropertyOp17
 70
     1
102
RTVSPropertyOp18
 70
     1
102
RTVSPropertyOp19
 70
     1
102
RTVSPropertyOp20
 70
     1
102
RTVSPropertyOp21
 70
     1
102
RTVSPropertyOp22
 70
     1
102
RTVSPropertyOp23
 70
     1
102
RTVSPropertyOp24
 70
     1
102
RTVSPropertyOp25
 70
     1
102
RTVSPropertyOp26
 70
     1
102
RTVSPropertyOp27
 70
     1
102
RTVSPropertyOp28
 70
     1
102
RTVSPropertyOp29
 70
     1
102
RTVSPropertyOp30
 70
     1
102
RTVSPropertyOp31
 70
     1
102
RTVSPropertyOp32
 70
     1
102
RTVSPropertyOp33
 70
     1
102
RTVSPropertyOp34
 70
     1
102
RTVSPropertyOp35
 70
     1
102
RTVSPropertyOp36
 70
     1
102
RTVSPropertyOp37
 70
     1
102
RTVSPropertyOp38
 70
     1
102
RTVSPropertyOp39
 70
     1
102
RTVSPropertyOp40
 70
     1
102
RTVSPropertyOp41
 70
     1
102
RTVSPropertyOp42
 70
     1
102
RTVSPropertyOp43
 70
     1
102
RTVSPropertyOp44
 70
     1
102
RTVSPropertyOp45
 70
     1
102
RTVSPropertyOp46
 70
     1
102
RTVSPropertyOp47
 70
     1
102
RTVSPropertyOp48
 70
     1
102
RTVSPropertyOp49
 70
     1
102
RTVSPropertyOp50
 70
     1
102
RTVSPropertyOp51
 70
     0
102
RTVSPropertyOp52
 70
     0
102
RTVSPropertyOp53
 70
     1
102
RTVSPropertyOp54
 70
     1
102
RTVSPropertyOp55
 70
     1
102
RTVSPropertyOp56
 70
     1
102
RTVSPropertyOp57
 70
     1
102
RTVSPost2010Prop28
280
     0
102
RTVSPost2010PropOp28
 70
     1
102
RTVSPost2010Prop29
280
     1
102
RTVSPost2010PropOp29
 70
     1
102
RTVSPost2010Prop30
280
     1
102
RTVSPost2010PropOp30
 70
     1
102
RTVSPost2010Prop31
280
     0
102
RTVSPost2010PropOp31
 70
     1
102
RTVSPost2010Prop32
280
     0
102
RTVSPost2010PropOp32
 70
     1
102
RTVSPost2010Prop33
280
     0
102
RTVSPost2010PropOp33
 70
     1
102
RTVSPost2010Prop34
280
     0
102
RTVSPost2010PropOp34
 70
     1
102
RTVSPost2010Prop35
280
     0
102
RTVSPost2010PropOp35
 70
     1
102
RTVSPost2010Prop36
280
     0
102
RTVSPost2010PropOp36
 70
     1
102
RTVSPost2010Prop37
 90
       50
102
RTVSPost2010PropOp37
 70
     1
102
RTVSPost2010Prop38
140
0.0
102
RTVSPost2010PropOp38
 70
     1
102
RTVSPost2010Prop39
140
1.0
102
RTVSPost2010PropOp39
 70
     1
102
RTVSPost2010Prop40
 90
        0
102
RTVSPost2010PropOp40
 70
     1
102
RTVSPost2010Prop41ColorIndex
 90
       18
102
RTVSPost2010Prop41ColorRGB
 90
        0
102
RTVSPost2010PropOp41
 70
     1
102
RTVSPost2010Prop42
 90
       50
102
RTVSPost2010PropOp42
 70
     1
102
RTVSPost2010Prop43
 90
        3
102
RTVSPost2010PropOp43
 70
     1
102
RTVSPost2010Prop44ColorIndex
 90
        5
102
RTVSPost2010Prop44ColorRGB
 90
      255
102
RTVSPost2010PropOp44
 70
     1
102
RTVSPost2010Prop45
280
     0
102
RTVSPost2010PropOp45
 70
     1
102
RTVSPost2010Prop46
 90
       50
102
RTVSPost2010PropOp46
 70
     1
102
RTVSPost2010Prop47
 90
       50
102
RTVSPost2010PropOp47
 70
     1
102
RTVSPost2010Prop48
 90
       50
102
RTVSPost2010PropOp48
 70
     1
102
RTVSPost2010Prop49
280
     0
102
RTVSPost2010PropOp49
 70
     1
102
RTVSPost2010Prop50
 90
       50
102
RTVSPost2010PropOp50
 70
     1
102
RTVSPost2010Prop51ColorIndex
 90
      256
102
RTVSPost2010Prop51ColorRGB
 90
-16777216
102
RTVSPost2010PropOp51
 70
     0
102
RTVSPost2010Prop52
140
1.0
102
RTVSPost2010PropOp52
 70
     0
102
RTVSPost2010Prop53
 90
        0
102
RTVSPost2010PropOp53
 70
     1
102
RTVSPost2010Prop54
  1
strokes_ogs.tif
102
RTVSPost2010PropOp54
 70
     1
102
RTVSPost2010Prop55
280
     0
102
RTVSPost2010PropOp55
 70
     1
102
RTVSPost2010Prop56
140
1.0
102
RTVSPost2010PropOp56
 70
     1
102
RTVSPost2010Prop57
140
1.0
102
RTVSPost2010PropOp57
 70
     1
  0
XRECORD
  5
52A
102
{ACAD_REACTORS
330
529
102
}
330
529
100
AcDbXrecord
280
     1
102
RTVSPropertyOp0
 70
     0
102
RTVSPropertyOp1
 70
     0
102
RTVSPropertyOp2
 70
     0
102
RTVSPropertyOp3
 70
     0
102
RTVSPropertyOp4
 70
     0
102
RTVSPropertyOp5
 70
     0
102
RTVSPropertyOp6
 70
     0
102
RTVSPropertyOp7
 70
     0
102
RTVSPropertyOp8
 70
     0
102
RTVSPropertyOp9
 70
     0
102
RTVSPropertyOp10
 70
     0
102
RTVSPropertyOp11
 70
     0
102
RTVSPropertyOp12
 70
     0
102
RTVSPropertyOp13
 70
     0
102
RTVSPropertyOp14
 70
     2
102
RTVSPropertyOp15
 70
     0
102
RTVSPropertyOp16
 70
     0
102
RTVSPropertyOp17
 70
     0
102
RTVSPropertyOp18
 70
     0
102
RTVSPropertyOp19
 70
     0
102
RTVSPropertyOp20
 70
     0
102
RTVSPropertyOp21
 70
     0
102
RTVSPropertyOp22
 70
     0
102
RTVSPropertyOp23
 70
     0
102
RTVSPropertyOp24
 70
     0
102
RTVSPropertyOp25
 70
     0
102
RTVSPropertyOp26
 70
     0
102
RTVSPropertyOp27
 70
     0
102
RTVSPropertyOp28
 70
     1
102
RTVSPropertyOp29
 70
     1
102
RTVSPropertyOp30
 70
     1
102
RTVSPropertyOp31
 70
     1
102
RTVSPropertyOp32
 70
     1
102
RTVSPropertyOp33
 70
     1
102
RTVSPropertyOp34
 70
     1
102
RTVSPropertyOp35
 70
     1
102
RTVSPropertyOp36
 70
     1
102
RTVSPropertyOp37
 70
     1
102
RTVSPropertyOp38
 70
     1
102
RTVSPropertyOp39
 70
     1
102
RTVSPropertyOp40
 70
     1
102
RTVSPropertyOp41
 70
     1
102
RTVSPropertyOp42
 70
     1
102
RTVSPropertyOp43
 70
     1
102
RTVSPropertyOp44
 70
     1
102
RTVSPropertyOp45
 70
     1
102
RTVSPropertyOp46
 70
     1
102
RTVSPropertyOp47
 70
     1
102
RTVSPropertyOp48
 70
     1
102
RTVSPropertyOp49
 70
     1
102
RTVSPropertyOp50
 70
     1
102
RTVSPropertyOp51
 70
     0
102
RTVSPropertyOp52
 70
     0
102
RTVSPropertyOp53
 70
     1
102
RTVSPropertyOp54
 70
     1
102
RTVSPropertyOp55
 70
     1
102
RTVSPropertyOp56
 70
     1
102
RTVSPropertyOp57
 70
     1
102
RTVSPost2010Prop28
280
     0
102
RTVSPost2010PropOp28
 70
     1
102
RTVSPost2010Prop29
280
     1
102
RTVSPost2010PropOp29
 70
     1
102
RTVSPost2010Prop30
280
     1
102
RTVSPost2010PropOp30
 70
     1
102
RTVSPost2010Prop31
280
     0
102
RTVSPost2010PropOp31
 70
     1
102
RTVSPost2010Prop32
280
     0
102
RTVSPost2010PropOp32
 70
     1
102
RTVSPost2010Prop33
280
     0
102
RTVSPost2010PropOp33
 70
     1
102
RTVSPost2010Prop34
280
     0
102
RTVSPost2010PropOp34
 70
     1
102
RTVSPost2010Prop35
280
     0
102
RTVSPost2010PropOp35
 70
     1
102
RTVSPost2010Prop36
280
     0
102
RTVSPost2010PropOp36
 70
     1
102
RTVSPost2010Prop37
 90
       50
102
RTVSPost2010PropOp37
 70
     1
102
RTVSPost2010Prop38
140
0.0
102
RTVSPost2010PropOp38
 70
     1
102
RTVSPost2010Prop39
140
1.0
102
RTVSPost2010PropOp39
 70
     1
102
RTVSPost2010Prop40
 90
        0
102
RTVSPost2010PropOp40
 70
     1
102
RTVSPost2010Prop41ColorIndex
 90
       18
102
RTVSPost2010Prop41ColorRGB
 90
        0
102
RTVSPost2010PropOp41
 70
     1
102
RTVSPost2010Prop42
 90
       50
102
RTVSPost2010PropOp42
 70
     1
102
RTVSPost2010Prop43
 90
        3
102
RTVSPost2010PropOp43
 70
     1
102
RTVSPost2010Prop44ColorIndex
 90
        5
102
RTVSPost2010Prop44ColorRGB
 90
      255
102
RTVSPost2010PropOp44
 70
     1
102
RTVSPost2010Prop45
280
     0
102
RTVSPost2010PropOp45
 70
     1
102
RTVSPost2010Prop46
 90
       50
102
RTVSPost2010PropOp46
 70
     1
102
RTVSPost2010Prop47
 90
       50
102
RTVSPost2010PropOp47
 70
     1
102
RTVSPost2010Prop48
 90
       50
102
RTVSPost2010PropOp48
 70
     1
102
RTVSPost2010Prop49
280
     0
102
RTVSPost2010PropOp49
 70
     1
102
RTVSPost2010Prop50
 90
       50
102
RTVSPost2010PropOp50
 70
     1
102
RTVSPost2010Prop51ColorIndex
 90
      256
102
RTVSPost2010Prop51ColorRGB
 90
-16777216
102
RTVSPost2010PropOp51
 70
     0
102
RTVSPost2010Prop52
140
1.0
102
RTVSPost2010PropOp52
 70
     0
102
RTVSPost2010Prop53
 90
        0
102
RTVSPost2010PropOp53
 70
     1
102
RTVSPost2010Prop54
  1
strokes_ogs.tif
102
RTVSPost2010PropOp54
 70
     1
102
RTVSPost2010Prop55
280
     0
102
RTVSPost2010PropOp55
 70
     1
102
RTVSPost2010Prop56
140
1.0
102
RTVSPost2010PropOp56
 70
     1
102
RTVSPost2010Prop57
140
1.0
102
RTVSPost2010PropOp57
 70
     1
  0
XRECORD
  5
52C
102
{ACAD_REACTORS
330
52B
102
}
330
52B
100
AcDbXrecord
280
     1
102
RTVSPropertyOp0
 70
     1
102
RTVSPropertyOp1
 70
     1
102
RTVSPropertyOp2
 70
     1
102
RTVSPropertyOp3
 70
     1
102
RTVSPropertyOp4
 70
     1
102
RTVSPropertyOp5
 70
     1
102
RTVSPropertyOp6
 70
     1
102
RTVSPropertyOp7
 70
     1
102
RTVSPropertyOp8
 70
     1
102
RTVSPropertyOp9
 70
     1
102
RTVSPropertyOp10
 70
     1
102
RTVSPropertyOp11
 70
     1
102
RTVSPropertyOp12
 70
     1
102
RTVSPropertyOp13
 70
     1
102
RTVSPropertyOp14
 70
     1
102
RTVSPropertyOp15
 70
     1
102
RTVSPropertyOp16
 70
     1
102
RTVSPropertyOp17
 70
     1
102
RTVSPropertyOp18
 70
     1
102
RTVSPropertyOp19
 70
     1
102
RTVSPropertyOp20
 70
     1
102
RTVSPropertyOp21
 70
     1
102
RTVSPropertyOp22
 70
     1
102
RTVSPropertyOp23
 70
     1
102
RTVSPropertyOp24
 70
     1
102
RTVSPropertyOp25
 70
     1
102
RTVSPropertyOp26
 70
     1
102
RTVSPropertyOp27
 70
     1
102
RTVSPropertyOp28
 70
     1
102
RTVSPropertyOp29
 70
     1
102
RTVSPropertyOp30
 70
     1
102
RTVSPropertyOp31
 70
     1
102
RTVSPropertyOp32
 70
     1
102
RTVSPropertyOp33
 70
     1
102
RTVSPropertyOp34
 70
     1
102
RTVSPropertyOp35
 70
     1
102
RTVSPropertyOp36
 70
     1
102
RTVSPropertyOp37
 70
     1
102
RTVSPropertyOp38
 70
     1
102
RTVSPropertyOp39
 70
     1
102
RTVSPropertyOp40
 70
     1
102
RTVSPropertyOp41
 70
     1
102
RTVSPropertyOp42
 70
     1
102
RTVSPropertyOp43
 70
     1
102
RTVSPropertyOp44
 70
     1
102
RTVSPropertyOp45
 70
     1
102
RTVSPropertyOp46
 70
     1
102
RTVSPropertyOp47
 70
     1
102
RTVSPropertyOp48
 70
     1
102
RTVSPropertyOp49
 70
     1
102
RTVSPropertyOp50
 70
     1
102
RTVSPropertyOp51
 70
     0
102
RTVSPropertyOp52
 70
     0
102
RTVSPropertyOp53
 70
     1
102
RTVSPropertyOp54
 70
     1
102
RTVSPropertyOp55
 70
     1
102
RTVSPropertyOp56
 70
     1
102
RTVSPropertyOp57
 70
     1
102
RTVSPost2010Prop28
280
     0
102
RTVSPost2010PropOp28
 70
     1
102
RTVSPost2010Prop29
280
     1
102
RTVSPost2010PropOp29
 70
     1
102
RTVSPost2010Prop30
280
     1
102
RTVSPost2010PropOp30
 70
     1
102
RTVSPost2010Prop31
280
     0
102
RTVSPost2010PropOp31
 70
     1
102
RTVSPost2010Prop32
280
     0
102
RTVSPost2010PropOp32
 70
     1
102
RTVSPost2010Prop33
280
     0
102
RTVSPost2010PropOp33
 70
     1
102
RTVSPost2010Prop34
280
     0
102
RTVSPost2010PropOp34
 70
     1
102
RTVSPost2010Prop35
280
     0
102
RTVSPost2010PropOp35
 70
     1
102
RTVSPost2010Prop36
280
     0
102
RTVSPost2010PropOp36
 70
     1
102
RTVSPost2010Prop37
 90
       50
102
RTVSPost2010PropOp37
 70
     1
102
RTVSPost2010Prop38
140
0.0
102
RTVSPost2010PropOp38
 70
     1
102
RTVSPost2010Prop39
140
1.0
102
RTVSPost2010PropOp39
 70
     1
102
RTVSPost2010Prop40
 90
        0
102
RTVSPost2010PropOp40
 70
     1
102
RTVSPost2010Prop41ColorIndex
 90
       18
102
RTVSPost2010Prop41ColorRGB
 90
        0
102
RTVSPost2010PropOp41
 70
     1
102
RTVSPost2010Prop42
 90
       50
102
RTVSPost2010PropOp42
 70
     1
102
RTVSPost2010Prop43
 90
        3
102
RTVSPost2010PropOp43
 70
     1
102
RTVSPost2010Prop44ColorIndex
 90
        5
102
RTVSPost2010Prop44ColorRGB
 90
      255
102
RTVSPost2010PropOp44
 70
     1
102
RTVSPost2010Prop45
280
     0
102
RTVSPost2010PropOp45
 70
     1
102
RTVSPost2010Prop46
 90
       50
102
RTVSPost2010PropOp46
 70
     1
102
RTVSPost2010Prop47
 90
       50
102
RTVSPost2010PropOp47
 70
     1
102
RTVSPost2010Prop48
 90
       50
102
RTVSPost2010PropOp48
 70
     1
102
RTVSPost2010Prop49
280
     0
102
RTVSPost2010PropOp49
 70
     1
102
RTVSPost2010Prop50
 90
       50
102
RTVSPost2010PropOp50
 70
     1
102
RTVSPost2010Prop51ColorIndex
 90
      256
102
RTVSPost2010Prop51ColorRGB
 90
-16777216
102
RTVSPost2010PropOp51
 70
     0
102
RTVSPost2010Prop52
140
1.0
102
RTVSPost2010PropOp52
 70
     0
102
RTVSPost2010Prop53
 90
        0
102
RTVSPost2010PropOp53
 70
     1
102
RTVSPost2010Prop54
  1
strokes_ogs.tif
102
RTVSPost2010PropOp54
 70
     1
102
RTVSPost2010Prop55
280
     0
102
RTVSPost2010PropOp55
 70
     1
102
RTVSPost2010Prop56
140
1.0
102
RTVSPost2010PropOp56
 70
     1
102
RTVSPost2010Prop57
140
1.0
102
RTVSPost2010PropOp57
 70
     1
  0
XRECORD
  5
52E
102
{ACAD_REACTORS
330
52D
102
}
330
52D
100
AcDbXrecord
280
     1
102
RTVSPropertyOp0
 70
     0
102
RTVSPropertyOp1
 70
     0
102
RTVSPropertyOp2
 70
     0
102
RTVSPropertyOp3
 70
     0
102
RTVSPropertyOp4
 70
     0
102
RTVSPropertyOp5
 70
     0
102
RTVSPropertyOp6
 70
     0
102
RTVSPropertyOp7
 70
     0
102
RTVSPropertyOp8
 70
     0
102
RTVSPropertyOp9
 70
     0
102
RTVSPropertyOp10
 70
     0
102
RTVSPropertyOp11
 70
     0
102
RTVSPropertyOp12
 70
     0
102
RTVSPropertyOp13
 70
     0
102
RTVSPropertyOp14
 70
     2
102
RTVSPropertyOp15
 70
     0
102
RTVSPropertyOp16
 70
     0
102
RTVSPropertyOp17
 70
     0
102
RTVSPropertyOp18
 70
     0
102
RTVSPropertyOp19
 70
     0
102
RTVSPropertyOp20
 70
     0
102
RTVSPropertyOp21
 70
     0
102
RTVSPropertyOp22
 70
     0
102
RTVSPropertyOp23
 70
     0
102
RTVSPropertyOp24
 70
     0
102
RTVSPropertyOp25
 70
     0
102
RTVSPropertyOp26
 70
     0
102
RTVSPropertyOp27
 70
     0
102
RTVSPropertyOp28
 70
     1
102
RTVSPropertyOp29
 70
     1
102
RTVSPropertyOp30
 70
     1
102
RTVSPropertyOp31
 70
     1
102
RTVSPropertyOp32
 70
     1
102
RTVSPropertyOp33
 70
     1
102
RTVSPropertyOp34
 70
     1
102
RTVSPropertyOp35
 70
     1
102
RTVSPropertyOp36
 70
     1
102
RTVSPropertyOp37
 70
     1
102
RTVSPropertyOp38
 70
     1
102
RTVSPropertyOp39
 70
     1
102
RTVSPropertyOp40
 70
     1
102
RTVSPropertyOp41
 70
     1
102
RTVSPropertyOp42
 70
     1
102
RTVSPropertyOp43
 70
     1
102
RTVSPropertyOp44
 70
     1
102
RTVSPropertyOp45
 70
     1
102
RTVSPropertyOp46
 70
     1
102
RTVSPropertyOp47
 70
     1
102
RTVSPropertyOp48
 70
     1
102
RTVSPropertyOp49
 70
     1
102
RTVSPropertyOp50
 70
     1
102
RTVSPropertyOp51
 70
     0
102
RTVSPropertyOp52
 70
     0
102
RTVSPropertyOp53
 70
     1
102
RTVSPropertyOp54
 70
     1
102
RTVSPropertyOp55
 70
     1
102
RTVSPropertyOp56
 70
     1
102
RTVSPropertyOp57
 70
     1
102
RTVSPost2010Prop28
280
     0
102
RTVSPost2010PropOp28
 70
     1
102
RTVSPost2010Prop29
280
     1
102
RTVSPost2010PropOp29
 70
     1
102
RTVSPost2010Prop30
280
     1
102
RTVSPost2010PropOp30
 70
     1
102
RTVSPost2010Prop31
280
     0
102
RTVSPost2010PropOp31
 70
     1
102
RTVSPost2010Prop32
280
     0
102
RTVSPost2010PropOp32
 70
     1
102
RTVSPost2010Prop33
280
     0
102
RTVSPost2010PropOp33
 70
     1
102
RTVSPost2010Prop34
280
     0
102
RTVSPost2010PropOp34
 70
     1
102
RTVSPost2010Prop35
280
     0
102
RTVSPost2010PropOp35
 70
     1
102
RTVSPost2010Prop36
280
     0
102
RTVSPost2010PropOp36
 70
     1
102
RTVSPost2010Prop37
 90
       50
102
RTVSPost2010PropOp37
 70
     1
102
RTVSPost2010Prop38
140
0.0
102
RTVSPost2010PropOp38
 70
     1
102
RTVSPost2010Prop39
140
1.0
102
RTVSPost2010PropOp39
 70
     1
102
RTVSPost2010Prop40
 90
        0
102
RTVSPost2010PropOp40
 70
     1
102
RTVSPost2010Prop41ColorIndex
 90
       18
102
RTVSPost2010Prop41ColorRGB
 90
        0
102
RTVSPost2010PropOp41
 70
     1
102
RTVSPost2010Prop42
 90
       50
102
RTVSPost2010PropOp42
 70
     1
102
RTVSPost2010Prop43
 90
        3
102
RTVSPost2010PropOp43
 70
     1
102
RTVSPost2010Prop44ColorIndex
 90
        5
102
RTVSPost2010Prop44ColorRGB
 90
      255
102
RTVSPost2010PropOp44
 70
     1
102
RTVSPost2010Prop45
280
     0
102
RTVSPost2010PropOp45
 70
     1
102
RTVSPost2010Prop46
 90
       50
102
RTVSPost2010PropOp46
 70
     1
102
RTVSPost2010Prop47
 90
       50
102
RTVSPost2010PropOp47
 70
     1
102
RTVSPost2010Prop48
 90
       50
102
RTVSPost2010PropOp48
 70
     1
102
RTVSPost2010Prop49
280
     0
102
RTVSPost2010PropOp49
 70
     1
102
RTVSPost2010Prop50
 90
       50
102
RTVSPost2010PropOp50
 70
     1
102
RTVSPost2010Prop51ColorIndex
 90
      256
102
RTVSPost2010Prop51ColorRGB
 90
-16777216
102
RTVSPost2010PropOp51
 70
     0
102
RTVSPost2010Prop52
140
1.0
102
RTVSPost2010PropOp52
 70
     0
102
RTVSPost2010Prop53
 90
        0
102
RTVSPost2010PropOp53
 70
     1
102
RTVSPost2010Prop54
  1
strokes_ogs.tif
102
RTVSPost2010PropOp54
 70
     1
102
RTVSPost2010Prop55
280
     0
102
RTVSPost2010PropOp55
 70
     1
102
RTVSPost2010Prop56
140
1.0
102
RTVSPost2010PropOp56
 70
     1
102
RTVSPost2010Prop57
140
1.0
102
RTVSPost2010PropOp57
 70
     1
  0
XRECORD
  5
530
102
{ACAD_REACTORS
330
52F
102
}
330
52F
100
AcDbXrecord
280
     1
102
RTVSPropertyOp0
 70
     1
102
RTVSPropertyOp1
 70
     1
102
RTVSPropertyOp2
 70
     1
102
RTVSPropertyOp3
 70
     1
102
RTVSPropertyOp4
 70
     1
102
RTVSPropertyOp5
 70
     1
102
RTVSPropertyOp6
 70
     1
102
RTVSPropertyOp7
 70
     1
102
RTVSPropertyOp8
 70
     1
102
RTVSPropertyOp9
 70
     1
102
RTVSPropertyOp10
 70
     1
102
RTVSPropertyOp11
 70
     1
102
RTVSPropertyOp12
 70
     1
102
RTVSPropertyOp13
 70
     1
102
RTVSPropertyOp14
 70
     1
102
RTVSPropertyOp15
 70
     1
102
RTVSPropertyOp16
 70
     1
102
RTVSPropertyOp17
 70
     1
102
RTVSPropertyOp18
 70
     1
102
RTVSPropertyOp19
 70
     1
102
RTVSPropertyOp20
 70
     1
102
RTVSPropertyOp21
 70
     1
102
RTVSPropertyOp22
 70
     1
102
RTVSPropertyOp23
 70
     1
102
RTVSPropertyOp24
 70
     1
102
RTVSPropertyOp25
 70
     1
102
RTVSPropertyOp26
 70
     1
102
RTVSPropertyOp27
 70
     1
102
RTVSPropertyOp28
 70
     1
102
RTVSPropertyOp29
 70
     1
102
RTVSPropertyOp30
 70
     1
102
RTVSPropertyOp31
 70
     1
102
RTVSPropertyOp32
 70
     1
102
RTVSPropertyOp33
 70
     1
102
RTVSPropertyOp34
 70
     1
102
RTVSPropertyOp35
 70
     1
102
RTVSPropertyOp36
 70
     1
102
RTVSPropertyOp37
 70
     1
102
RTVSPropertyOp38
 70
     1
102
RTVSPropertyOp39
 70
     1
102
RTVSPropertyOp40
 70
     1
102
RTVSPropertyOp41
 70
     1
102
RTVSPropertyOp42
 70
     1
102
RTVSPropertyOp43
 70
     1
102
RTVSPropertyOp44
 70
     1
102
RTVSPropertyOp45
 70
     1
102
RTVSPropertyOp46
 70
     1
102
RTVSPropertyOp47
 70
     1
102
RTVSPropertyOp48
 70
     1
102
RTVSPropertyOp49
 70
     1
102
RTVSPropertyOp50
 70
     1
102
RTVSPropertyOp51
 70
     0
102
RTVSPropertyOp52
 70
     0
102
RTVSPropertyOp53
 70
     1
102
RTVSPropertyOp54
 70
     1
102
RTVSPropertyOp55
 70
     1
102
RTVSPropertyOp56
 70
     1
102
RTVSPropertyOp57
 70
     1
102
RTVSPost2010Prop28
280
     0
102
RTVSPost2010PropOp28
 70
     1
102
RTVSPost2010Prop29
280
     1
102
RTVSPost2010PropOp29
 70
     1
102
RTVSPost2010Prop30
280
     1
102
RTVSPost2010PropOp30
 70
     1
102
RTVSPost2010Prop31
280
     0
102
RTVSPost2010PropOp31
 70
     1
102
RTVSPost2010Prop32
280
     0
102
RTVSPost2010PropOp32
 70
     1
102
RTVSPost2010Prop33
280
     0
102
RTVSPost2010PropOp33
 70
     1
102
RTVSPost2010Prop34
280
     0
102
RTVSPost2010PropOp34
 70
     1
102
RTVSPost2010Prop35
280
     0
102
RTVSPost2010PropOp35
 70
     1
102
RTVSPost2010Prop36
280
     0
102
RTVSPost2010PropOp36
 70
     1
102
RTVSPost2010Prop37
 90
       50
102
RTVSPost2010PropOp37
 70
     1
102
RTVSPost2010Prop38
140
0.0
102
RTVSPost2010PropOp38
 70
     1
102
RTVSPost2010Prop39
140
1.0
102
RTVSPost2010PropOp39
 70
     1
102
RTVSPost2010Prop40
 90
        0
102
RTVSPost2010PropOp40
 70
     1
102
RTVSPost2010Prop41ColorIndex
 90
       18
102
RTVSPost2010Prop41ColorRGB
 90
        0
102
RTVSPost2010PropOp41
 70
     1
102
RTVSPost2010Prop42
 90
       50
102
RTVSPost2010PropOp42
 70
     1
102
RTVSPost2010Prop43
 90
        3
102
RTVSPost2010PropOp43
 70
     1
102
RTVSPost2010Prop44ColorIndex
 90
        5
102
RTVSPost2010Prop44ColorRGB
 90
      255
102
RTVSPost2010PropOp44
 70
     1
102
RTVSPost2010Prop45
280
     0
102
RTVSPost2010PropOp45
 70
     1
102
RTVSPost2010Prop46
 90
       50
102
RTVSPost2010PropOp46
 70
     1
102
RTVSPost2010Prop47
 90
       50
102
RTVSPost2010PropOp47
 70
     1
102
RTVSPost2010Prop48
 90
       50
102
RTVSPost2010PropOp48
 70
     1
102
RTVSPost2010Prop49
280
     0
102
RTVSPost2010PropOp49
 70
     1
102
RTVSPost2010Prop50
 90
       50
102
RTVSPost2010PropOp50
 70
     1
102
RTVSPost2010Prop51ColorIndex
 90
      256
102
RTVSPost2010Prop51ColorRGB
 90
-16777216
102
RTVSPost2010PropOp51
 70
     0
102
RTVSPost2010Prop52
140
1.0
102
RTVSPost2010PropOp52
 70
     0
102
RTVSPost2010Prop53
 90
        0
102
RTVSPost2010PropOp53
 70
     1
102
RTVSPost2010Prop54
  1
strokes_ogs.tif
102
RTVSPost2010PropOp54
 70
     1
102
RTVSPost2010Prop55
280
     0
102
RTVSPost2010PropOp55
 70
     1
102
RTVSPost2010Prop56
140
1.0
102
RTVSPost2010PropOp56
 70
     1
102
RTVSPost2010Prop57
140
1.0
102
RTVSPost2010PropOp57
 70
     1
  0
XRECORD
  5
532
102
{ACAD_REACTORS
330
531
102
}
330
531
100
AcDbXrecord
280
     1
102
RTVSPropertyOp0
 70
     1
102
RTVSPropertyOp1
 70
     1
102
RTVSPropertyOp2
 70
     1
102
RTVSPropertyOp3
 70
     1
102
RTVSPropertyOp4
 70
     1
102
RTVSPropertyOp5
 70
     1
102
RTVSPropertyOp6
 70
     1
102
RTVSPropertyOp7
 70
     1
102
RTVSPropertyOp8
 70
     1
102
RTVSPropertyOp9
 70
     1
102
RTVSPropertyOp10
 70
     1
102
RTVSPropertyOp11
 70
     1
102
RTVSPropertyOp12
 70
     1
102
RTVSPropertyOp13
 70
     1
102
RTVSPropertyOp14
 70
     1
102
RTVSPropertyOp15
 70
     1
102
RTVSPropertyOp16
 70
     1
102
RTVSPropertyOp17
 70
     1
102
RTVSPropertyOp18
 70
     1
102
RTVSPropertyOp19
 70
     1
102
RTVSPropertyOp20
 70
     1
102
RTVSPropertyOp21
 70
     1
102
RTVSPropertyOp22
 70
     1
102
RTVSPropertyOp23
 70
     1
102
RTVSPropertyOp24
 70
     1
102
RTVSPropertyOp25
 70
     1
102
RTVSPropertyOp26
 70
     1
102
RTVSPropertyOp27
 70
     1
102
RTVSPropertyOp28
 70
     1
102
RTVSPropertyOp29
 70
     1
102
RTVSPropertyOp30
 70
     1
102
RTVSPropertyOp31
 70
     1
102
RTVSPropertyOp32
 70
     1
102
RTVSPropertyOp33
 70
     1
102
RTVSPropertyOp34
 70
     1
102
RTVSPropertyOp35
 70
     1
102
RTVSPropertyOp36
 70
     1
102
RTVSPropertyOp37
 70
     1
102
RTVSPropertyOp38
 70
     1
102
RTVSPropertyOp39
 70
     1
102
RTVSPropertyOp40
 70
     1
102
RTVSPropertyOp41
 70
     1
102
RTVSPropertyOp42
 70
     1
102
RTVSPropertyOp43
 70
     1
102
RTVSPropertyOp44
 70
     1
102
RTVSPropertyOp45
 70
     1
102
RTVSPropertyOp46
 70
     1
102
RTVSPropertyOp47
 70
     1
102
RTVSPropertyOp48
 70
     1
102
RTVSPropertyOp49
 70
     1
102
RTVSPropertyOp50
 70
     1
102
RTVSPropertyOp51
 70
     0
102
RTVSPropertyOp52
 70
     0
102
RTVSPropertyOp53
 70
     1
102
RTVSPropertyOp54
 70
     1
102
RTVSPropertyOp55
 70
     1
102
RTVSPropertyOp56
 70
     1
102
RTVSPropertyOp57
 70
     1
102
RTVSPost2010Prop28
280
     0
102
RTVSPost2010PropOp28
 70
     1
102
RTVSPost2010Prop29
280
     1
102
RTVSPost2010PropOp29
 70
     1
102
RTVSPost2010Prop30
280
     1
102
RTVSPost2010PropOp30
 70
     1
102
RTVSPost2010Prop31
280
     0
102
RTVSPost2010PropOp31
 70
     1
102
RTVSPost2010Prop32
280
     0
102
RTVSPost2010PropOp32
 70
     1
102
RTVSPost2010Prop33
280
     0
102
RTVSPost2010PropOp33
 70
     1
102
RTVSPost2010Prop34
280
     0
102
RTVSPost2010PropOp34
 70
     1
102
RTVSPost2010Prop35
280
     0
102
RTVSPost2010PropOp35
 70
     1
102
RTVSPost2010Prop36
280
     0
102
RTVSPost2010PropOp36
 70
     1
102
RTVSPost2010Prop37
 90
       50
102
RTVSPost2010PropOp37
 70
     1
102
RTVSPost2010Prop38
140
0.0
102
RTVSPost2010PropOp38
 70
     1
102
RTVSPost2010Prop39
140
1.0
102
RTVSPost2010PropOp39
 70
     1
102
RTVSPost2010Prop40
 90
        0
102
RTVSPost2010PropOp40
 70
     1
102
RTVSPost2010Prop41ColorIndex
 90
       18
102
RTVSPost2010Prop41ColorRGB
 90
        0
102
RTVSPost2010PropOp41
 70
     1
102
RTVSPost2010Prop42
 90
       50
102
RTVSPost2010PropOp42
 70
     1
102
RTVSPost2010Prop43
 90
        3
102
RTVSPost2010PropOp43
 70
     1
102
RTVSPost2010Prop44ColorIndex
 90
        5
102
RTVSPost2010Prop44ColorRGB
 90
      255
102
RTVSPost2010PropOp44
 70
     1
102
RTVSPost2010Prop45
280
     0
102
RTVSPost2010PropOp45
 70
     1
102
RTVSPost2010Prop46
 90
       50
102
RTVSPost2010PropOp46
 70
     1
102
RTVSPost2010Prop47
 90
       50
102
RTVSPost2010PropOp47
 70
     1
102
RTVSPost2010Prop48
 90
       50
102
RTVSPost2010PropOp48
 70
     1
102
RTVSPost2010Prop49
280
     0
102
RTVSPost2010PropOp49
 70
     1
102
RTVSPost2010Prop50
 90
       50
102
RTVSPost2010PropOp50
 70
     1
102
RTVSPost2010Prop51ColorIndex
 90
      256
102
RTVSPost2010Prop51ColorRGB
 90
-16777216
102
RTVSPost2010PropOp51
 70
     0
102
RTVSPost2010Prop52
140
1.0
102
RTVSPost2010PropOp52
 70
     0
102
RTVSPost2010Prop53
 90
        0
102
RTVSPost2010PropOp53
 70
     1
102
RTVSPost2010Prop54
  1
strokes_ogs.tif
102
RTVSPost2010PropOp54
 70
     1
102
RTVSPost2010Prop55
280
     0
102
RTVSPost2010PropOp55
 70
     1
102
RTVSPost2010Prop56
140
1.0
102
RTVSPost2010PropOp56
 70
     1
102
RTVSPost2010Prop57
140
1.0
102
RTVSPost2010PropOp57
 70
     1
  0
XRECORD
  5
534
102
{ACAD_REACTORS
330
533
102
}
330
533
100
AcDbXrecord
280
     1
102
RTVSPropertyOp0
 70
     1
102
RTVSPropertyOp1
 70
     1
102
RTVSPropertyOp2
 70
     1
102
RTVSPropertyOp3
 70
     1
102
RTVSPropertyOp4
 70
     1
102
RTVSPropertyOp5
 70
     1
102
RTVSPropertyOp6
 70
     1
102
RTVSPropertyOp7
 70
     1
102
RTVSPropertyOp8
 70
     1
102
RTVSPropertyOp9
 70
     1
102
RTVSPropertyOp10
 70
     1
102
RTVSPropertyOp11
 70
     1
102
RTVSPropertyOp12
 70
     1
102
RTVSPropertyOp13
 70
     1
102
RTVSPropertyOp14
 70
     1
102
RTVSPropertyOp15
 70
     1
102
RTVSPropertyOp16
 70
     1
102
RTVSPropertyOp17
 70
     1
102
RTVSPropertyOp18
 70
     1
102
RTVSPropertyOp19
 70
     1
102
RTVSPropertyOp20
 70
     1
102
RTVSPropertyOp21
 70
     1
102
RTVSPropertyOp22
 70
     1
102
RTVSPropertyOp23
 70
     1
102
RTVSPropertyOp24
 70
     1
102
RTVSPropertyOp25
 70
     1
102
RTVSPropertyOp26
 70
     1
102
RTVSPropertyOp27
 70
     1
102
RTVSPropertyOp28
 70
     1
102
RTVSPropertyOp29
 70
     1
102
RTVSPropertyOp30
 70
     1
102
RTVSPropertyOp31
 70
     1
102
RTVSPropertyOp32
 70
     1
102
RTVSPropertyOp33
 70
     1
102
RTVSPropertyOp34
 70
     1
102
RTVSPropertyOp35
 70
     1
102
RTVSPropertyOp36
 70
     1
102
RTVSPropertyOp37
 70
     1
102
RTVSPropertyOp38
 70
     1
102
RTVSPropertyOp39
 70
     1
102
RTVSPropertyOp40
 70
     1
102
RTVSPropertyOp41
 70
     1
102
RTVSPropertyOp42
 70
     1
102
RTVSPropertyOp43
 70
     1
102
RTVSPropertyOp44
 70
     1
102
RTVSPropertyOp45
 70
     1
102
RTVSPropertyOp46
 70
     1
102
RTVSPropertyOp47
 70
     1
102
RTVSPropertyOp48
 70
     1
102
RTVSPropertyOp49
 70
     1
102
RTVSPropertyOp50
 70
     1
102
RTVSPropertyOp51
 70
     0
102
RTVSPropertyOp52
 70
     0
102
RTVSPropertyOp53
 70
     1
102
RTVSPropertyOp54
 70
     1
102
RTVSPropertyOp55
 70
     1
102
RTVSPropertyOp56
 70
     1
102
RTVSPropertyOp57
 70
     1
102
RTVSPost2010Prop28
280
     0
102
RTVSPost2010PropOp28
 70
     1
102
RTVSPost2010Prop29
280
     1
102
RTVSPost2010PropOp29
 70
     1
102
RTVSPost2010Prop30
280
     1
102
RTVSPost2010PropOp30
 70
     1
102
RTVSPost2010Prop31
280
     0
102
RTVSPost2010PropOp31
 70
     1
102
RTVSPost2010Prop32
280
     0
102
RTVSPost2010PropOp32
 70
     1
102
RTVSPost2010Prop33
280
     0
102
RTVSPost2010PropOp33
 70
     1
102
RTVSPost2010Prop34
280
     0
102
RTVSPost2010PropOp34
 70
     1
102
RTVSPost2010Prop35
280
     0
102
RTVSPost2010PropOp35
 70
     1
102
RTVSPost2010Prop36
280
     0
102
RTVSPost2010PropOp36
 70
     1
102
RTVSPost2010Prop37
 90
       50
102
RTVSPost2010PropOp37
 70
     1
102
RTVSPost2010Prop38
140
0.0
102
RTVSPost2010PropOp38
 70
     1
102
RTVSPost2010Prop39
140
1.0
102
RTVSPost2010PropOp39
 70
     1
102
RTVSPost2010Prop40
 90
        0
102
RTVSPost2010PropOp40
 70
     1
102
RTVSPost2010Prop41ColorIndex
 90
       18
102
RTVSPost2010Prop41ColorRGB
 90
        0
102
RTVSPost2010PropOp41
 70
     1
102
RTVSPost2010Prop42
 90
       50
102
RTVSPost2010PropOp42
 70
     1
102
RTVSPost2010Prop43
 90
        3
102
RTVSPost2010PropOp43
 70
     1
102
RTVSPost2010Prop44ColorIndex
 90
        5
102
RTVSPost2010Prop44ColorRGB
 90
      255
102
RTVSPost2010PropOp44
 70
     1
102
RTVSPost2010Prop45
280
     0
102
RTVSPost2010PropOp45
 70
     1
102
RTVSPost2010Prop46
 90
       50
102
RTVSPost2010PropOp46
 70
     1
102
RTVSPost2010Prop47
 90
       50
102
RTVSPost2010PropOp47
 70
     1
102
RTVSPost2010Prop48
 90
       50
102
RTVSPost2010PropOp48
 70
     1
102
RTVSPost2010Prop49
280
     0
102
RTVSPost2010PropOp49
 70
     1
102
RTVSPost2010Prop50
 90
       50
102
RTVSPost2010PropOp50
 70
     1
102
RTVSPost2010Prop51ColorIndex
 90
      256
102
RTVSPost2010Prop51ColorRGB
 90
-16777216
102
RTVSPost2010PropOp51
 70
     0
102
RTVSPost2010Prop52
140
1.0
102
RTVSPost2010PropOp52
 70
     0
102
RTVSPost2010Prop53
 90
        0
102
RTVSPost2010PropOp53
 70
     1
102
RTVSPost2010Prop54
  1
strokes_ogs.tif
102
RTVSPost2010PropOp54
 70
     1
102
RTVSPost2010Prop55
280
     0
102
RTVSPost2010PropOp55
 70
     1
102
RTVSPost2010Prop56
140
1.0
102
RTVSPost2010PropOp56
 70
     1
102
RTVSPost2010Prop57
140
1.0
102
RTVSPost2010PropOp57
 70
     1
  0
XRECORD
  5
536
102
{ACAD_REACTORS
330
535
102
}
330
535
100
AcDbXrecord
280
     1
102
RTVSPropertyOp0
 70
     1
102
RTVSPropertyOp1
 70
     1
102
RTVSPropertyOp2
 70
     1
102
RTVSPropertyOp3
 70
     1
102
RTVSPropertyOp4
 70
     1
102
RTVSPropertyOp5
 70
     1
102
RTVSPropertyOp6
 70
     1
102
RTVSPropertyOp7
 70
     1
102
RTVSPropertyOp8
 70
     1
102
RTVSPropertyOp9
 70
     1
102
RTVSPropertyOp10
 70
     1
102
RTVSPropertyOp11
 70
     1
102
RTVSPropertyOp12
 70
     1
102
RTVSPropertyOp13
 70
     1
102
RTVSPropertyOp14
 70
     1
102
RTVSPropertyOp15
 70
     1
102
RTVSPropertyOp16
 70
     1
102
RTVSPropertyOp17
 70
     1
102
RTVSPropertyOp18
 70
     1
102
RTVSPropertyOp19
 70
     1
102
RTVSPropertyOp20
 70
     1
102
RTVSPropertyOp21
 70
     1
102
RTVSPropertyOp22
 70
     1
102
RTVSPropertyOp23
 70
     1
102
RTVSPropertyOp24
 70
     1
102
RTVSPropertyOp25
 70
     1
102
RTVSPropertyOp26
 70
     1
102
RTVSPropertyOp27
 70
     1
102
RTVSPropertyOp28
 70
     1
102
RTVSPropertyOp29
 70
     1
102
RTVSPropertyOp30
 70
     1
102
RTVSPropertyOp31
 70
     1
102
RTVSPropertyOp32
 70
     1
102
RTVSPropertyOp33
 70
     1
102
RTVSPropertyOp34
 70
     1
102
RTVSPropertyOp35
 70
     1
102
RTVSPropertyOp36
 70
     1
102
RTVSPropertyOp37
 70
     1
102
RTVSPropertyOp38
 70
     1
102
RTVSPropertyOp39
 70
     1
102
RTVSPropertyOp40
 70
     1
102
RTVSPropertyOp41
 70
     1
102
RTVSPropertyOp42
 70
     1
102
RTVSPropertyOp43
 70
     1
102
RTVSPropertyOp44
 70
     1
102
RTVSPropertyOp45
 70
     1
102
RTVSPropertyOp46
 70
     1
102
RTVSPropertyOp47
 70
     1
102
RTVSPropertyOp48
 70
     1
102
RTVSPropertyOp49
 70
     1
102
RTVSPropertyOp50
 70
     1
102
RTVSPropertyOp51
 70
     0
102
RTVSPropertyOp52
 70
     0
102
RTVSPropertyOp53
 70
     1
102
RTVSPropertyOp54
 70
     1
102
RTVSPropertyOp55
 70
     1
102
RTVSPropertyOp56
 70
     1
102
RTVSPropertyOp57
 70
     1
102
RTVSPost2010Prop28
280
     0
102
RTVSPost2010PropOp28
 70
     1
102
RTVSPost2010Prop29
280
     1
102
RTVSPost2010PropOp29
 70
     1
102
RTVSPost2010Prop30
280
     1
102
RTVSPost2010PropOp30
 70
     1
102
RTVSPost2010Prop31
280
     0
102
RTVSPost2010PropOp31
 70
     1
102
RTVSPost2010Prop32
280
     0
102
RTVSPost2010PropOp32
 70
     1
102
RTVSPost2010Prop33
280
     0
102
RTVSPost2010PropOp33
 70
     1
102
RTVSPost2010Prop34
280
     0
102
RTVSPost2010PropOp34
 70
     1
102
RTVSPost2010Prop35
280
     0
102
RTVSPost2010PropOp35
 70
     1
102
RTVSPost2010Prop36
280
     0
102
RTVSPost2010PropOp36
 70
     1
102
RTVSPost2010Prop37
 90
       50
102
RTVSPost2010PropOp37
 70
     1
102
RTVSPost2010Prop38
140
0.0
102
RTVSPost2010PropOp38
 70
     1
102
RTVSPost2010Prop39
140
1.0
102
RTVSPost2010PropOp39
 70
     1
102
RTVSPost2010Prop40
 90
        0
102
RTVSPost2010PropOp40
 70
     1
102
RTVSPost2010Prop41ColorIndex
 90
       18
102
RTVSPost2010Prop41ColorRGB
 90
        0
102
RTVSPost2010PropOp41
 70
     1
102
RTVSPost2010Prop42
 90
       50
102
RTVSPost2010PropOp42
 70
     1
102
RTVSPost2010Prop43
 90
        3
102
RTVSPost2010PropOp43
 70
     1
102
RTVSPost2010Prop44ColorIndex
 90
        5
102
RTVSPost2010Prop44ColorRGB
 90
      255
102
RTVSPost2010PropOp44
 70
     1
102
RTVSPost2010Prop45
280
     0
102
RTVSPost2010PropOp45
 70
     1
102
RTVSPost2010Prop46
 90
       50
102
RTVSPost2010PropOp46
 70
     1
102
RTVSPost2010Prop47
 90
       50
102
RTVSPost2010PropOp47
 70
     1
102
RTVSPost2010Prop48
 90
       50
102
RTVSPost2010PropOp48
 70
     1
102
RTVSPost2010Prop49
280
     0
102
RTVSPost2010PropOp49
 70
     1
102
RTVSPost2010Prop50
 90
       50
102
RTVSPost2010PropOp50
 70
     1
102
RTVSPost2010Prop51ColorIndex
 90
      256
102
RTVSPost2010Prop51ColorRGB
 90
-16777216
102
RTVSPost2010PropOp51
 70
     0
102
RTVSPost2010Prop52
140
1.0
102
RTVSPost2010PropOp52
 70
     0
102
RTVSPost2010Prop53
 90
        0
102
RTVSPost2010PropOp53
 70
     1
102
RTVSPost2010Prop54
  1
strokes_ogs.tif
102
RTVSPost2010PropOp54
 70
     1
102
RTVSPost2010Prop55
280
     0
102
RTVSPost2010PropOp55
 70
     1
102
RTVSPost2010Prop56
140
1.0
102
RTVSPost2010PropOp56
 70
     1
102
RTVSPost2010Prop57
140
1.0
102
RTVSPost2010PropOp57
 70
     1
  0
XRECORD
  5
538
102
{ACAD_REACTORS
330
537
102
}
330
537
100
AcDbXrecord
280
     1
102
RTVSPropertyOp0
 70
     1
102
RTVSPropertyOp1
 70
     1
102
RTVSPropertyOp2
 70
     1
102
RTVSPropertyOp3
 70
     1
102
RTVSPropertyOp4
 70
     1
102
RTVSPropertyOp5
 70
     1
102
RTVSPropertyOp6
 70
     1
102
RTVSPropertyOp7
 70
     1
102
RTVSPropertyOp8
 70
     1
102
RTVSPropertyOp9
 70
     1
102
RTVSPropertyOp10
 70
     1
102
RTVSPropertyOp11
 70
     1
102
RTVSPropertyOp12
 70
     1
102
RTVSPropertyOp13
 70
     1
102
RTVSPropertyOp14
 70
     1
102
RTVSPropertyOp15
 70
     1
102
RTVSPropertyOp16
 70
     1
102
RTVSPropertyOp17
 70
     1
102
RTVSPropertyOp18
 70
     1
102
RTVSPropertyOp19
 70
     1
102
RTVSPropertyOp20
 70
     1
102
RTVSPropertyOp21
 70
     1
102
RTVSPropertyOp22
 70
     1
102
RTVSPropertyOp23
 70
     1
102
RTVSPropertyOp24
 70
     1
102
RTVSPropertyOp25
 70
     1
102
RTVSPropertyOp26
 70
     1
102
RTVSPropertyOp27
 70
     1
102
RTVSPropertyOp28
 70
     1
102
RTVSPropertyOp29
 70
     1
102
RTVSPropertyOp30
 70
     1
102
RTVSPropertyOp31
 70
     1
102
RTVSPropertyOp32
 70
     1
102
RTVSPropertyOp33
 70
     1
102
RTVSPropertyOp34
 70
     1
102
RTVSPropertyOp35
 70
     1
102
RTVSPropertyOp36
 70
     1
102
RTVSPropertyOp37
 70
     1
102
RTVSPropertyOp38
 70
     1
102
RTVSPropertyOp39
 70
     1
102
RTVSPropertyOp40
 70
     1
102
RTVSPropertyOp41
 70
     1
102
RTVSPropertyOp42
 70
     1
102
RTVSPropertyOp43
 70
     1
102
RTVSPropertyOp44
 70
     1
102
RTVSPropertyOp45
 70
     1
102
RTVSPropertyOp46
 70
     1
102
RTVSPropertyOp47
 70
     1
102
RTVSPropertyOp48
 70
     1
102
RTVSPropertyOp49
 70
     1
102
RTVSPropertyOp50
 70
     1
102
RTVSPropertyOp51
 70
     0
102
RTVSPropertyOp52
 70
     0
102
RTVSPropertyOp53
 70
     1
102
RTVSPropertyOp54
 70
     1
102
RTVSPropertyOp55
 70
     1
102
RTVSPropertyOp56
 70
     1
102
RTVSPropertyOp57
 70
     1
102
RTVSPost2010Prop28
280
     0
102
RTVSPost2010PropOp28
 70
     1
102
RTVSPost2010Prop29
280
     1
102
RTVSPost2010PropOp29
 70
     1
102
RTVSPost2010Prop30
280
     1
102
RTVSPost2010PropOp30
 70
     1
102
RTVSPost2010Prop31
280
     0
102
RTVSPost2010PropOp31
 70
     1
102
RTVSPost2010Prop32
280
     0
102
RTVSPost2010PropOp32
 70
     1
102
RTVSPost2010Prop33
280
     0
102
RTVSPost2010PropOp33
 70
     1
102
RTVSPost2010Prop34
280
     0
102
RTVSPost2010PropOp34
 70
     1
102
RTVSPost2010Prop35
280
     0
102
RTVSPost2010PropOp35
 70
     1
102
RTVSPost2010Prop36
280
     0
102
RTVSPost2010PropOp36
 70
     1
102
RTVSPost2010Prop37
 90
       50
102
RTVSPost2010PropOp37
 70
     1
102
RTVSPost2010Prop38
140
0.0
102
RTVSPost2010PropOp38
 70
     1
102
RTVSPost2010Prop39
140
1.0
102
RTVSPost2010PropOp39
 70
     1
102
RTVSPost2010Prop40
 90
        0
102
RTVSPost2010PropOp40
 70
     1
102
RTVSPost2010Prop41ColorIndex
 90
       18
102
RTVSPost2010Prop41ColorRGB
 90
        0
102
RTVSPost2010PropOp41
 70
     1
102
RTVSPost2010Prop42
 90
       50
102
RTVSPost2010PropOp42
 70
     1
102
RTVSPost2010Prop43
 90
        3
102
RTVSPost2010PropOp43
 70
     1
102
RTVSPost2010Prop44ColorIndex
 90
        5
102
RTVSPost2010Prop44ColorRGB
 90
      255
102
RTVSPost2010PropOp44
 70
     1
102
RTVSPost2010Prop45
280
     0
102
RTVSPost2010PropOp45
 70
     1
102
RTVSPost2010Prop46
 90
       50
102
RTVSPost2010PropOp46
 70
     1
102
RTVSPost2010Prop47
 90
       50
102
RTVSPost2010PropOp47
 70
     1
102
RTVSPost2010Prop48
 90
       50
102
RTVSPost2010PropOp48
 70
     1
102
RTVSPost2010Prop49
280
     0
102
RTVSPost2010PropOp49
 70
     1
102
RTVSPost2010Prop50
 90
       50
102
RTVSPost2010PropOp50
 70
     1
102
RTVSPost2010Prop51ColorIndex
 90
      256
102
RTVSPost2010Prop51ColorRGB
 90
-16777216
102
RTVSPost2010PropOp51
 70
     0
102
RTVSPost2010Prop52
140
1.0
102
RTVSPost2010PropOp52
 70
     0
102
RTVSPost2010Prop53
 90
        0
102
RTVSPost2010PropOp53
 70
     1
102
RTVSPost2010Prop54
  1
strokes_ogs.tif
102
RTVSPost2010PropOp54
 70
     1
102
RTVSPost2010Prop55
280
     0
102
RTVSPost2010PropOp55
 70
     1
102
RTVSPost2010Prop56
140
1.0
102
RTVSPost2010PropOp56
 70
     1
102
RTVSPost2010Prop57
140
1.0
102
RTVSPost2010PropOp57
 70
     1
  0
XRECORD
  5
53A
102
{ACAD_REACTORS
330
539
102
}
330
539
100
AcDbXrecord
280
     1
102
RTVSPropertyOp0
 70
     1
102
RTVSPropertyOp1
 70
     1
102
RTVSPropertyOp2
 70
     1
102
RTVSPropertyOp3
 70
     1
102
RTVSPropertyOp4
 70
     1
102
RTVSPropertyOp5
 70
     1
102
RTVSPropertyOp6
 70
     1
102
RTVSPropertyOp7
 70
     1
102
RTVSPropertyOp8
 70
     1
102
RTVSPropertyOp9
 70
     1
102
RTVSPropertyOp10
 70
     1
102
RTVSPropertyOp11
 70
     1
102
RTVSPropertyOp12
 70
     1
102
RTVSPropertyOp13
 70
     1
102
RTVSPropertyOp14
 70
     1
102
RTVSPropertyOp15
 70
     1
102
RTVSPropertyOp16
 70
     1
102
RTVSPropertyOp17
 70
     1
102
RTVSPropertyOp18
 70
     1
102
RTVSPropertyOp19
 70
     1
102
RTVSPropertyOp20
 70
     1
102
RTVSPropertyOp21
 70
     1
102
RTVSPropertyOp22
 70
     1
102
RTVSPropertyOp23
 70
     1
102
RTVSPropertyOp24
 70
     1
102
RTVSPropertyOp25
 70
     1
102
RTVSPropertyOp26
 70
     1
102
RTVSPropertyOp27
 70
     1
102
RTVSPropertyOp28
 70
     1
102
RTVSPropertyOp29
 70
     1
102
RTVSPropertyOp30
 70
     1
102
RTVSPropertyOp31
 70
     1
102
RTVSPropertyOp32
 70
     1
102
RTVSPropertyOp33
 70
     1
102
RTVSPropertyOp34
 70
     1
102
RTVSPropertyOp35
 70
     1
102
RTVSPropertyOp36
 70
     1
102
RTVSPropertyOp37
 70
     1
102
RTVSPropertyOp38
 70
     1
102
RTVSPropertyOp39
 70
     1
102
RTVSPropertyOp40
 70
     1
102
RTVSPropertyOp41
 70
     1
102
RTVSPropertyOp42
 70
     1
102
RTVSPropertyOp43
 70
     1
102
RTVSPropertyOp44
 70
     1
102
RTVSPropertyOp45
 70
     1
102
RTVSPropertyOp46
 70
     1
102
RTVSPropertyOp47
 70
     1
102
RTVSPropertyOp48
 70
     1
102
RTVSPropertyOp49
 70
     1
102
RTVSPropertyOp50
 70
     1
102
RTVSPropertyOp51
 70
     0
102
RTVSPropertyOp52
 70
     0
102
RTVSPropertyOp53
 70
     1
102
RTVSPropertyOp54
 70
     1
102
RTVSPropertyOp55
 70
     1
102
RTVSPropertyOp56
 70
     1
102
RTVSPropertyOp57
 70
     1
102
RTVSPost2010Prop28
280
     0
102
RTVSPost2010PropOp28
 70
     1
102
RTVSPost2010Prop29
280
     1
102
RTVSPost2010PropOp29
 70
     1
102
RTVSPost2010Prop30
280
     1
102
RTVSPost2010PropOp30
 70
     1
102
RTVSPost2010Prop31
280
     0
102
RTVSPost2010PropOp31
 70
     1
102
RTVSPost2010Prop32
280
     0
102
RTVSPost2010PropOp32
 70
     1
102
RTVSPost2010Prop33
280
     0
102
RTVSPost2010PropOp33
 70
     1
102
RTVSPost2010Prop34
280
     0
102
RTVSPost2010PropOp34
 70
     1
102
RTVSPost2010Prop35
280
     0
102
RTVSPost2010PropOp35
 70
     1
102
RTVSPost2010Prop36
280
     0
102
RTVSPost2010PropOp36
 70
     1
102
RTVSPost2010Prop37
 90
       50
102
RTVSPost2010PropOp37
 70
     1
102
RTVSPost2010Prop38
140
0.0
102
RTVSPost2010PropOp38
 70
     1
102
RTVSPost2010Prop39
140
1.0
102
RTVSPost2010PropOp39
 70
     1
102
RTVSPost2010Prop40
 90
        0
102
RTVSPost2010PropOp40
 70
     1
102
RTVSPost2010Prop41ColorIndex
 90
       18
102
RTVSPost2010Prop41ColorRGB
 90
        0
102
RTVSPost2010PropOp41
 70
     1
102
RTVSPost2010Prop42
 90
       50
102
RTVSPost2010PropOp42
 70
     1
102
RTVSPost2010Prop43
 90
        3
102
RTVSPost2010PropOp43
 70
     1
102
RTVSPost2010Prop44ColorIndex
 90
        5
102
RTVSPost2010Prop44ColorRGB
 90
      255
102
RTVSPost2010PropOp44
 70
     1
102
RTVSPost2010Prop45
280
     0
102
RTVSPost2010PropOp45
 70
     1
102
RTVSPost2010Prop46
 90
       50
102
RTVSPost2010PropOp46
 70
     1
102
RTVSPost2010Prop47
 90
       50
102
RTVSPost2010PropOp47
 70
     1
102
RTVSPost2010Prop48
 90
       50
102
RTVSPost2010PropOp48
 70
     1
102
RTVSPost2010Prop49
280
     0
102
RTVSPost2010PropOp49
 70
     1
102
RTVSPost2010Prop50
 90
       50
102
RTVSPost2010PropOp50
 70
     1
102
RTVSPost2010Prop51ColorIndex
 90
      256
102
RTVSPost2010Prop51ColorRGB
 90
-16777216
102
RTVSPost2010PropOp51
 70
     0
102
RTVSPost2010Prop52
140
1.0
102
RTVSPost2010PropOp52
 70
     0
102
RTVSPost2010Prop53
 90
        0
102
RTVSPost2010PropOp53
 70
     1
102
RTVSPost2010Prop54
  1
strokes_ogs.tif
102
RTVSPost2010PropOp54
 70
     1
102
RTVSPost2010Prop55
280
     0
102
RTVSPost2010PropOp55
 70
     1
102
RTVSPost2010Prop56
140
1.0
102
RTVSPost2010PropOp56
 70
     1
102
RTVSPost2010Prop57
140
1.0
102
RTVSPost2010PropOp57
 70
     1
  0
XRECORD
  5
53C
102
{ACAD_REACTORS
330
53B
102
}
330
53B
100
AcDbXrecord
280
     1
102
RTVSPropertyOp0
 70
     1
102
RTVSPropertyOp1
 70
     1
102
RTVSPropertyOp2
 70
     1
102
RTVSPropertyOp3
 70
     1
102
RTVSPropertyOp4
 70
     1
102
RTVSPropertyOp5
 70
     1
102
RTVSPropertyOp6
 70
     1
102
RTVSPropertyOp7
 70
     1
102
RTVSPropertyOp8
 70
     1
102
RTVSPropertyOp9
 70
     1
102
RTVSPropertyOp10
 70
     1
102
RTVSPropertyOp11
 70
     1
102
RTVSPropertyOp12
 70
     1
102
RTVSPropertyOp13
 70
     1
102
RTVSPropertyOp14
 70
     1
102
RTVSPropertyOp15
 70
     1
102
RTVSPropertyOp16
 70
     1
102
RTVSPropertyOp17
 70
     1
102
RTVSPropertyOp18
 70
     1
102
RTVSPropertyOp19
 70
     1
102
RTVSPropertyOp20
 70
     1
102
RTVSPropertyOp21
 70
     1
102
RTVSPropertyOp22
 70
     1
102
RTVSPropertyOp23
 70
     1
102
RTVSPropertyOp24
 70
     1
102
RTVSPropertyOp25
 70
     1
102
RTVSPropertyOp26
 70
     1
102
RTVSPropertyOp27
 70
     1
102
RTVSPropertyOp28
 70
     1
102
RTVSPropertyOp29
 70
     1
102
RTVSPropertyOp30
 70
     1
102
RTVSPropertyOp31
 70
     1
102
RTVSPropertyOp32
 70
     1
102
RTVSPropertyOp33
 70
     1
102
RTVSPropertyOp34
 70
     1
102
RTVSPropertyOp35
 70
     1
102
RTVSPropertyOp36
 70
     1
102
RTVSPropertyOp37
 70
     1
102
RTVSPropertyOp38
 70
     1
102
RTVSPropertyOp39
 70
     1
102
RTVSPropertyOp40
 70
     1
102
RTVSPropertyOp41
 70
     1
102
RTVSPropertyOp42
 70
     1
102
RTVSPropertyOp43
 70
     1
102
RTVSPropertyOp44
 70
     1
102
RTVSPropertyOp45
 70
     1
102
RTVSPropertyOp46
 70
     1
102
RTVSPropertyOp47
 70
     1
102
RTVSPropertyOp48
 70
     1
102
RTVSPropertyOp49
 70
     1
102
RTVSPropertyOp50
 70
     1
102
RTVSPropertyOp51
 70
     0
102
RTVSPropertyOp52
 70
     0
102
RTVSPropertyOp53
 70
     1
102
RTVSPropertyOp54
 70
     1
102
RTVSPropertyOp55
 70
     1
102
RTVSPropertyOp56
 70
     1
102
RTVSPropertyOp57
 70
     1
102
RTVSPost2010Prop28
280
     0
102
RTVSPost2010PropOp28
 70
     1
102
RTVSPost2010Prop29
280
     1
102
RTVSPost2010PropOp29
 70
     1
102
RTVSPost2010Prop30
280
     1
102
RTVSPost2010PropOp30
 70
     1
102
RTVSPost2010Prop31
280
     0
102
RTVSPost2010PropOp31
 70
     1
102
RTVSPost2010Prop32
280
     0
102
RTVSPost2010PropOp32
 70
     1
102
RTVSPost2010Prop33
280
     0
102
RTVSPost2010PropOp33
 70
     1
102
RTVSPost2010Prop34
280
     0
102
RTVSPost2010PropOp34
 70
     1
102
RTVSPost2010Prop35
280
     0
102
RTVSPost2010PropOp35
 70
     1
102
RTVSPost2010Prop36
280
     0
102
RTVSPost2010PropOp36
 70
     1
102
RTVSPost2010Prop37
 90
       50
102
RTVSPost2010PropOp37
 70
     1
102
RTVSPost2010Prop38
140
0.0
102
RTVSPost2010PropOp38
 70
     1
102
RTVSPost2010Prop39
140
1.0
102
RTVSPost2010PropOp39
 70
     1
102
RTVSPost2010Prop40
 90
        0
102
RTVSPost2010PropOp40
 70
     1
102
RTVSPost2010Prop41ColorIndex
 90
       18
102
RTVSPost2010Prop41ColorRGB
 90
        0
102
RTVSPost2010PropOp41
 70
     1
102
RTVSPost2010Prop42
 90
       50
102
RTVSPost2010PropOp42
 70
     1
102
RTVSPost2010Prop43
 90
        3
102
RTVSPost2010PropOp43
 70
     1
102
RTVSPost2010Prop44ColorIndex
 90
        5
102
RTVSPost2010Prop44ColorRGB
 90
      255
102
RTVSPost2010PropOp44
 70
     1
102
RTVSPost2010Prop45
280
     0
102
RTVSPost2010PropOp45
 70
     1
102
RTVSPost2010Prop46
 90
       50
102
RTVSPost2010PropOp46
 70
     1
102
RTVSPost2010Prop47
 90
       50
102
RTVSPost2010PropOp47
 70
     1
102
RTVSPost2010Prop48
 90
       50
102
RTVSPost2010PropOp48
 70
     1
102
RTVSPost2010Prop49
280
     0
102
RTVSPost2010PropOp49
 70
     1
102
RTVSPost2010Prop50
 90
       50
102
RTVSPost2010PropOp50
 70
     1
102
RTVSPost2010Prop51ColorIndex
 90
      256
102
RTVSPost2010Prop51ColorRGB
 90
-16777216
102
RTVSPost2010PropOp51
 70
     0
102
RTVSPost2010Prop52
140
1.0
102
RTVSPost2010PropOp52
 70
     0
102
RTVSPost2010Prop53
 90
        0
102
RTVSPost2010PropOp53
 70
     1
102
RTVSPost2010Prop54
  1
strokes_ogs.tif
102
RTVSPost2010PropOp54
 70
     1
102
RTVSPost2010Prop55
280
     0
102
RTVSPost2010PropOp55
 70
     1
102
RTVSPost2010Prop56
140
1.0
102
RTVSPost2010PropOp56
 70
     1
102
RTVSPost2010Prop57
140
1.0
102
RTVSPost2010PropOp57
 70
     1
  0
XRECORD
  5
53E
102
{ACAD_REACTORS
330
53D
102
}
330
53D
100
AcDbXrecord
280
     1
102
RTVSPropertyOp0
 70
     1
102
RTVSPropertyOp1
 70
     1
102
RTVSPropertyOp2
 70
     1
102
RTVSPropertyOp3
 70
     1
102
RTVSPropertyOp4
 70
     1
102
RTVSPropertyOp5
 70
     1
102
RTVSPropertyOp6
 70
     1
102
RTVSPropertyOp7
 70
     1
102
RTVSPropertyOp8
 70
     1
102
RTVSPropertyOp9
 70
     1
102
RTVSPropertyOp10
 70
     1
102
RTVSPropertyOp11
 70
     1
102
RTVSPropertyOp12
 70
     1
102
RTVSPropertyOp13
 70
     1
102
RTVSPropertyOp14
 70
     1
102
RTVSPropertyOp15
 70
     1
102
RTVSPropertyOp16
 70
     1
102
RTVSPropertyOp17
 70
     1
102
RTVSPropertyOp18
 70
     1
102
RTVSPropertyOp19
 70
     1
102
RTVSPropertyOp20
 70
     1
102
RTVSPropertyOp21
 70
     1
102
RTVSPropertyOp22
 70
     1
102
RTVSPropertyOp23
 70
     1
102
RTVSPropertyOp24
 70
     1
102
RTVSPropertyOp25
 70
     1
102
RTVSPropertyOp26
 70
     1
102
RTVSPropertyOp27
 70
     1
102
RTVSPropertyOp28
 70
     1
102
RTVSPropertyOp29
 70
     1
102
RTVSPropertyOp30
 70
     1
102
RTVSPropertyOp31
 70
     1
102
RTVSPropertyOp32
 70
     1
102
RTVSPropertyOp33
 70
     1
102
RTVSPropertyOp34
 70
     1
102
RTVSPropertyOp35
 70
     1
102
RTVSPropertyOp36
 70
     1
102
RTVSPropertyOp37
 70
     1
102
RTVSPropertyOp38
 70
     1
102
RTVSPropertyOp39
 70
     1
102
RTVSPropertyOp40
 70
     1
102
RTVSPropertyOp41
 70
     1
102
RTVSPropertyOp42
 70
     1
102
RTVSPropertyOp43
 70
     1
102
RTVSPropertyOp44
 70
     1
102
RTVSPropertyOp45
 70
     1
102
RTVSPropertyOp46
 70
     1
102
RTVSPropertyOp47
 70
     1
102
RTVSPropertyOp48
 70
     1
102
RTVSPropertyOp49
 70
     1
102
RTVSPropertyOp50
 70
     1
102
RTVSPropertyOp51
 70
     0
102
RTVSPropertyOp52
 70
     0
102
RTVSPropertyOp53
 70
     1
102
RTVSPropertyOp54
 70
     1
102
RTVSPropertyOp55
 70
     1
102
RTVSPropertyOp56
 70
     1
102
RTVSPropertyOp57
 70
     1
102
RTVSPost2010Prop28
280
     0
102
RTVSPost2010PropOp28
 70
     1
102
RTVSPost2010Prop29
280
     1
102
RTVSPost2010PropOp29
 70
     1
102
RTVSPost2010Prop30
280
     1
102
RTVSPost2010PropOp30
 70
     1
102
RTVSPost2010Prop31
280
     0
102
RTVSPost2010PropOp31
 70
     1
102
RTVSPost2010Prop32
280
     0
102
RTVSPost2010PropOp32
 70
     1
102
RTVSPost2010Prop33
280
     0
102
RTVSPost2010PropOp33
 70
     1
102
RTVSPost2010Prop34
280
     0
102
RTVSPost2010PropOp34
 70
     1
102
RTVSPost2010Prop35
280
     0
102
RTVSPost2010PropOp35
 70
     1
102
RTVSPost2010Prop36
280
     0
102
RTVSPost2010PropOp36
 70
     1
102
RTVSPost2010Prop37
 90
       50
102
RTVSPost2010PropOp37
 70
     1
102
RTVSPost2010Prop38
140
0.0
102
RTVSPost2010PropOp38
 70
     1
102
RTVSPost2010Prop39
140
1.0
102
RTVSPost2010PropOp39
 70
     1
102
RTVSPost2010Prop40
 90
        0
102
RTVSPost2010PropOp40
 70
     1
102
RTVSPost2010Prop41ColorIndex
 90
       18
102
RTVSPost2010Prop41ColorRGB
 90
        0
102
RTVSPost2010PropOp41
 70
     1
102
RTVSPost2010Prop42
 90
       50
102
RTVSPost2010PropOp42
 70
     1
102
RTVSPost2010Prop43
 90
        3
102
RTVSPost2010PropOp43
 70
     1
102
RTVSPost2010Prop44ColorIndex
 90
        5
102
RTVSPost2010Prop44ColorRGB
 90
      255
102
RTVSPost2010PropOp44
 70
     1
102
RTVSPost2010Prop45
280
     0
102
RTVSPost2010PropOp45
 70
     1
102
RTVSPost2010Prop46
 90
       50
102
RTVSPost2010PropOp46
 70
     1
102
RTVSPost2010Prop47
 90
       50
102
RTVSPost2010PropOp47
 70
     1
102
RTVSPost2010Prop48
 90
       50
102
RTVSPost2010PropOp48
 70
     1
102
RTVSPost2010Prop49
280
     0
102
RTVSPost2010PropOp49
 70
     1
102
RTVSPost2010Prop50
 90
       50
102
RTVSPost2010PropOp50
 70
     1
102
RTVSPost2010Prop51ColorIndex
 90
      256
102
RTVSPost2010Prop51ColorRGB
 90
-16777216
102
RTVSPost2010PropOp51
 70
     0
102
RTVSPost2010Prop52
140
1.0
102
RTVSPost2010PropOp52
 70
     0
102
RTVSPost2010Prop53
 90
        0
102
RTVSPost2010PropOp53
 70
     1
102
RTVSPost2010Prop54
  1
strokes_ogs.tif
102
RTVSPost2010PropOp54
 70
     1
102
RTVSPost2010Prop55
280
     0
102
RTVSPost2010PropOp55
 70
     1
102
RTVSPost2010Prop56
140
1.0
102
RTVSPost2010PropOp56
 70
     1
102
RTVSPost2010Prop57
140
1.0
102
RTVSPost2010PropOp57
 70
     1
  0
ENDSEC
  0
EOF
